Саймон говорит / Simon Says (Уильям Диар / William Dear) [2006 г., ужасы, триллер, BDRip] DVO + Original (Eng)

 
Автор Сообщение

reversefile ®

Пол:

Стаж: 4 года 5 месяцев

Сообщений: 842

Откуда: ReverseFile.org



Награды: Нет

Торрент-статистика

Создавать темы 13-Авг-2014 10:03

[Цитировать]

Саймон говорит / Simon Says«You forgot to say..... SIMON SAYS»- Год выпуска: 2006
Страна: США
Жанр: ужасы, триллер
Рейтинг MPAA:
Продолжительность: 01:23:35
Перевод: Профессиональный (двухголосый закадровый)
Cубтитры: Нет-Режиссер: Уильям Диар / William Dear
В ролях: Криспин Гловер, Марго Харшман, Грег Сайпс, Келли Виц, Арти Бакстер, Кэрри Финкли, Лори Ливли, Брюс Гловер, Блейк Лайвли, Оливер Диар
Описание:
Пятеро друзей решили провести каникулы на природе — в живописном местечке на берегу реки. Идеальное место для студенческого лагеря. Один из местных жителей вызвался провести их через лес прямо к реке.
Отдых, обещавший много приятных минут, постепенно превратился в кровавый кошмар — один за другим ребята становятся жертвами жестокого и изощренного убийцы-психопата, который назвает себя Саймоном. Выжить сможет только тот, кто знает единственное правило смертельной игры — делать только то, что говорит Саймон…- -Качество: BDRip
Формат: AVI
Видео: 720x400 (16:9), 25.000 fps, XviD build 65 ~1846 kbps avg, 0.25 bit/pixel
Аудио#1: 48 kHz, AC3 Dolby Digital, 3/2 (L,C,R,l,r) + LFE ch, 448 kbps | DVO
Аудио#2: 48 kHz, AC3 Dolby Digital, 2/0 (L,R) ch, 192.00 kbps | Original (Eng)

MediaInfo

General
Complete name : D:\Saimon.govorit.2006.BDRip.Wrnr.avi
Format : AVI
Format/Info : Audio Video Interleave
File size : 1.46 GiB
Duration : 1h 23mn
Overall bit rate : 2 501 Kbps
Writing application : VirtualDubMod 1.5.10.3 | www.virtualdub-fr.org || (build 2550/release)
Writing library : VirtualDubMod build 2550/release
Video
ID : 0
Format : MPEG-4 Visual
Format profile : Advanced Simple@L5
Format settings, BVOP : 1
Format settings, QPel : No
Format settings, GMC : No warppoints
Format settings, Matrix : Custom
Codec ID : XVID
Codec ID/Hint : XviD
Duration : 1h 23mn
Bit rate : 1 846 Kbps
Width : 720 pixels
Height : 400 pixels
Display aspect ratio : 16:9
Frame rate : 25.000 fps
Color space : YUV
Chroma subsampling : 4:2:0
Bit depth : 8 bits
Scan type : Progressive
Compression mode : Lossy
Bits/(Pixel*Frame) : 0.256
Stream size : 1.08 GiB (74%)
Writing library : XviD 65
Audio #1
ID : 1
Format : AC-3
Format/Info : Audio Coding 3
Mode extension : CM (complete main)
Format settings, Endianness : Big
Codec ID : 2000
Duration : 1h 23mn
Bit rate mode : Constant
Bit rate : 448 Kbps
Channel(s) : 6 channels
Channel positions : Front: L C R, Side: L R, LFE
Sampling rate : 48.0 KHz
Bit depth : 16 bits
Compression mode : Lossy
Stream size : 268 MiB (18%)
Alignment : Split accross interleaves
Interleave, duration : 40 ms (1.00 video frame)
Interleave, preload duration : 500 ms
Audio #2
ID : 2
Format : AC-3
Format/Info : Audio Coding 3
Mode extension : CM (complete main)
Format settings, Endianness : Big
Codec ID : 2000
Duration : 1h 23mn
Bit rate mode : Constant
Bit rate : 192 Kbps
Channel(s) : 2 channels
Channel positions : Front: L R
Sampling rate : 48.0 KHz
Bit depth : 16 bits
Compression mode : Lossy
Stream size : 115 MiB (8%)
Alignment : Split accross interleaves
Interleave, duration : 40 ms (1.00 video frame)
Interleave, preload duration : 500 ms

Скриншоты

--
[Профиль] [ЛС]

Создавать темы 06-Авг-2015 23:18 (спустя 11 месяцев 24 дня)

Топик был перенесен из форума Фильмы до 2014 года в форум Фильмы до 2012 года
sergej644
 
Кто просматривает тему:

Форум Тема Автор Размер
Animal Planet Animal Planet: Земля динозавров / When Dinosaurs Ruled (Jurassica) [сезон 1 серии 1-5 из 5] (Тони Митчелл, Саймон Ллойд, Дэвид Тибблс) [1999 г., Документальный, научно-познавательный, и... skorpionN 7.34 GB
BBC BBC: Кровь и золото. Становление Испании с Саймоном Себагом-Монтефиоре / Blood and Gold: The Making of Spain with Simon Sebag Montefiore [серии 1-3 из 3] (Marion Milne) [2015 г., Документал... skorpionN 5.43 GB
R.G.TorrentFilm Video Авиакатастрофы: совершенно секретно / Aircrash Confidential [Сезон 2, серии 6 из 6] (Саймон Ладгейт / Simon Ludgate) [2012 г., Документальный, авиация, SATRip] Один 777 2.05 GB
Фильмы 2015 года Агорафобия / Agoraphobia (Лу Саймон / Lou Simon) [2015, США, ужасы, триллер, WEB-DLRip] VO TorrentFilm 1.43 GB
Фильмы 2015 года Агорафобия / Agoraphobia (Лу Саймон / Lou Simon) [2015, США, ужасы, триллер] WEB-DLRip | iTunes BOSS 1.44 GB
Фильмы 2015 года Битва за Скайарк / Battle for Skyark (Саймон Хунг / Saymon Hung) [2015, США, фантастика, боевик, приключения, семейный, HDRip] VO (datynet) + Original Eng TorrentFilm 1.37 GB
Фильмы 2015 года Битва за Скайарк / Battle for Skyark (Саймон Хунг) [2015, фантастика, боевик, приключения, семейный] HDRip | L1 BOSS 1.37 GB
Фильмы (HD DVD, Blu-ray и BDRemux) Воздушная тюрьма / Con Air (Саймон Уэст / Simon West)[1997, боевик, триллер, криминал, BDRip] 1080p sergej644 18.06 GB
Показать сообщения:    

Текущее время: Сегодня 11:53

Часовой пояс: GMT



Вы не можете начинать темы
Вы не можете отвечать на сообщения
Вы не можете редактировать свои сообщения
Вы не можете удалять свои сообщения
Вы не можете голосовать в опросах
Вы не можете прикреплять файлы к сообщениям
Вы не можете скачивать файлы