Саймон говорит / Simon Says (Уильям Диар / William Dear) [2006 г., ужасы, триллер, BDRip-AVC] DVO + Original (Eng) + Sub (rus)

 
Автор Сообщение

reversefile ®

Пол:

Стаж: 4 года 5 месяцев

Сообщений: 842

Откуда: ReverseFile.org



Награды: Нет

Торрент-статистика

Создавать темы 13-Авг-2014 10:03

[Цитировать]

Саймон говорит / Simon Says«You forgot to say..... SIMON SAYS»- Год выпуска: 2006
Страна: США
Жанр: ужасы, триллер
Рейтинг MPAA:
Продолжительность: 01:23:35
Перевод: Профессиональный (двухголосый закадровый)
Cубтитры: Русские-Режиссер: Уильям Диар / William Dear
В ролях: Криспин Гловер, Марго Харшман, Грег Сайпс, Келли Виц, Арти Бакстер, Кэрри Финкли, Лори Ливли, Брюс Гловер, Блейк Лайвли, Оливер Диар
Описание:
Пятеро друзей решили провести каникулы на природе — в живописном местечке на берегу реки. Идеальное место для студенческого лагеря. Один из местных жителей вызвался провести их через лес прямо к реке.
Отдых, обещавший много приятных минут, постепенно превратился в кровавый кошмар — один за другим ребята становятся жертвами жестокого и изощренного убийцы-психопата, который назвает себя Саймоном. Выжить сможет только тот, кто знает единственное правило смертельной игры — делать только то, что говорит Саймон…- -Качество: BDRip-AVC
Формат: MKV
Видео: AVC, 1142x640 (16:9), 25,000 fps, 3037 kbps, 0.162 b/p*f
Аудио#1: 48 kHz, AC3 Dolby Digital, 3/2 (L,C,R,l,r) + LFE ch, 448 kbps | DVO
Аудио#2: 48 kHz, AC3 Dolby Digital, 2/0 (L,R) ch, 192.00 kbps | Original (Eng)

x264

x264 [info]: frame I:1094 Avg QP:15.93 size: 71721
x264 [info]: frame P:28385 Avg QP:17.61 size: 28631
x264 [info]: frame B:95902 Avg QP:20.58 size: 10564
x264 [info]: consecutive B-frames: 2.3% 2.6% 8.5% 28.5% 15.6% 35.9% 5.0% 0.4% 0.3% 0.3% 0.1% 0.1% 0.1% 0.0% 0.0% 0.0% 0.2%
x264 [info]: mb I I16..4: 3.9% 81.9% 14.2%
x264 [info]: mb P I16..4: 1.8% 18.5% 1.7% P16..4: 30.9% 30.9% 8.2% 0.8% 0.1% skip: 7.1%
x264 [info]: mb B I16..4: 0.2% 2.5% 0.2% B16..8: 29.2% 17.4% 2.6% direct: 6.5% skip:41.4% L0:38.7% L1:46.1% BI:15.2%
x264 [info]: 8x8 transform intra:84.4% inter:62.5%
x264 [info]: coded y,uvDC,uvAC intra: 80.7% 78.7% 53.7% inter: 20.1% 17.1% 2.5%
x264 [info]: i16 v,h,dc,p: 20% 11% 6% 63%
x264 [info]: i8 v,h,dc,ddl,ddr,vr,hd,vl,hu: 9% 9% 7% 9% 12% 13% 12% 13% 16%
x264 [info]: i4 v,h,dc,ddl,ddr,vr,hd,vl,hu: 11% 9% 6% 8% 15% 14% 13% 10% 13%
x264 [info]: i8c dc,h,v,p: 36% 28% 19% 17%
x264 [info]: Weighted P-Frames: Y:4.3% UV:2.8%
x264 [info]: ref P L0: 48.9% 8.6% 19.1% 6.0% 5.0% 3.4% 3.0% 1.6% 1.5% 1.5% 1.3% 0.2% 0.0%
x264 [info]: ref B L0: 83.3% 8.4% 3.3% 1.5% 1.1% 0.8% 0.7% 0.4% 0.3% 0.3%
x264 [info]: ref B L1: 95.9% 4.1%
x264 [info]: kb/s:3037.57

MediaInfo

General
Unique ID : 237736197903686620827567027569694857145 (0xB2DA5384837F5015BEBE1D95F70FD7B9)
Complete name : D:\Саймон Говорит '06 [Wrnr].mkv
Format : Matroska
Format version : Version 2
File size : 2.15 GiB
Duration : 1h 23mn
Overall bit rate : 3 680 Kbps
Movie name : Саймон говорит / Simon Says (2006)
Encoded date : UTC 2014-07-22 17:50:28
Writing application : mkvmerge v5.6.0 ('Kenya Kane') built on Jun 29 2012 15:01:44
Writing library : libebml v1.2.3 + libmatroska v1.3.0
Video
ID : 1
Format : AVC
Format/Info : Advanced Video Codec
Format profile : High@L4.1
Format settings, CABAC : Yes
Format settings, ReFrames : 11 frames
Codec ID : V_MPEG4/ISO/AVC
Duration : 1h 23mn
Bit rate : 2 966 Kbps
Width : 1 142 pixels
Height : 640 pixels
Display aspect ratio : 16:9
Frame rate mode : Constant
Frame rate : 25.000 fps
Color space : YUV
Chroma subsampling : 4:2:0
Bit depth : 8 bits
Scan type : Progressive
Bits/(Pixel*Frame) : 0.162
Stream size : 1.73 GiB (81%)
Title : Encoded by Wrnr
Writing library : x264 core 142 r2431kMod ac76440
Encoding settings : cabac=1 / ref=11 / deblock=1:-2:-1 / analyse=0x3:0x133 / me=umh / subme=11 / psy=1 / fade_compensate=0.00 / psy_rd=0.80:0.00 / mixed_ref=1 / me_range=32 / chroma_me=1 / trellis=2 / 8x8dct=1 / cqm=0 / deadzone=21,11 / fast_pskip=1 / chroma_qp_offset=-2 / threads=3 / lookahead_threads=1 / sliced_threads=0 / nr=0 / decimate=1 / interlaced=0 / bluray_compat=0 / constrained_intra=0 / fgo=0 / bframes=16 / b_pyramid=2 / b_adapt=2 / b_bias=0 / direct=1 / weightb=1 / open_gop=0 / weightp=2 / keyint=250 / keyint_min=25 / scenecut=40 / intra_refresh=0 / rc_lookahead=60 / rc=crf / mbtree=0 / crf=18.0000 / qcomp=0.65 / qpmin=0 / qpmax=69 / qpstep=4 / vbv_maxrate=50000 / vbv_bufsize=62500 / crf_max=0.0 / nal_hrd=none / filler=0 / ip_ratio=1.40 / pb_ratio=1.25 / aq=2:1.00
Language : English
Default : Yes
Forced : No
Color primaries : BT.709
Transfer characteristics : BT.709
Matrix coefficients : BT.709
Audio #1
ID : 2
Format : AC-3
Format/Info : Audio Coding 3
Mode extension : CM (complete main)
Format settings, Endianness : Big
Codec ID : A_AC3
Duration : 1h 23mn
Bit rate mode : Constant
Bit rate : 448 Kbps
Channel(s) : 6 channels
Channel positions : Front: L C R, Side: L R, LFE
Sampling rate : 48.0 KHz
Bit depth : 16 bits
Compression mode : Lossy
Stream size : 268 MiB (12%)
Title : DVO
Language : Russian
Default : Yes
Forced : No
Audio #2
ID : 3
Format : AC-3
Format/Info : Audio Coding 3
Mode extension : CM (complete main)
Format settings, Endianness : Big
Codec ID : A_AC3
Duration : 1h 23mn
Bit rate mode : Constant
Bit rate : 192 Kbps
Channel(s) : 2 channels
Channel positions : Front: L R
Sampling rate : 48.0 KHz
Bit depth : 16 bits
Compression mode : Lossy
Stream size : 115 MiB (5%)
Title : Original
Language : English
Default : No
Forced : No
Text
ID : 4
Format : UTF-8
Codec ID : S_TEXT/UTF8
Codec ID/Info : UTF-8 Plain Text
Language : Russian
Default : Yes
Forced : No

Скриншоты

[Профиль] [ЛС]

Создавать темы 06-Авг-2015 23:18 (спустя 11 месяцев 24 дня)

Топик был перенесен из форума Фильмы до 2014 года в форум Фильмы до 2012 года
sergej644
 
Кто просматривает тему:

Форум Тема Автор Размер
Animal Planet Animal Planet: Земля динозавров / When Dinosaurs Ruled (Jurassica) [сезон 1 серии 1-5 из 5] (Тони Митчелл, Саймон Ллойд, Дэвид Тибблс) [1999 г., Документальный, научно-познавательный, и... skorpionN 7.34 GB
BBC BBC: Кровь и золото. Становление Испании с Саймоном Себагом-Монтефиоре / Blood and Gold: The Making of Spain with Simon Sebag Montefiore [серии 1-3 из 3] (Marion Milne) [2015 г., Документал... skorpionN 5.43 GB
R.G.TorrentFilm Video Авиакатастрофы: совершенно секретно / Aircrash Confidential [Сезон 2, серии 6 из 6] (Саймон Ладгейт / Simon Ludgate) [2012 г., Документальный, авиация, SATRip] Один 777 2.05 GB
Фильмы 2015 года Агорафобия / Agoraphobia (Лу Саймон / Lou Simon) [2015, США, ужасы, триллер, WEB-DLRip] VO TorrentFilm 1.43 GB
Фильмы 2015 года Агорафобия / Agoraphobia (Лу Саймон / Lou Simon) [2015, США, ужасы, триллер] WEB-DLRip | iTunes BOSS 1.44 GB
Фильмы 2015 года Битва за Скайарк / Battle for Skyark (Саймон Хунг / Saymon Hung) [2015, США, фантастика, боевик, приключения, семейный, HDRip] VO (datynet) + Original Eng TorrentFilm 1.37 GB
Фильмы 2015 года Битва за Скайарк / Battle for Skyark (Саймон Хунг) [2015, фантастика, боевик, приключения, семейный] HDRip | L1 BOSS 1.37 GB
Фильмы (HD DVD, Blu-ray и BDRemux) Воздушная тюрьма / Con Air (Саймон Уэст / Simon West)[1997, боевик, триллер, криминал, BDRip] 1080p sergej644 18.06 GB
Показать сообщения:    

Текущее время: Сегодня 06:25

Часовой пояс: GMT



Вы не можете начинать темы
Вы не можете отвечать на сообщения
Вы не можете редактировать свои сообщения
Вы не можете удалять свои сообщения
Вы не можете голосовать в опросах
Вы не можете прикреплять файлы к сообщениям
Вы не можете скачивать файлы