Садо / Sado (2015) BDRemux 1080p | L2

 
Автор Сообщение

Russian Mafia ®

Пол:

Стаж: 1 год 8 месяцев

Сообщений: 4247



Награды: 10 (Подробнее)

Mega Seeder 4 (Количество: 1) Top Releaser 4 (Количество: 1) Top Releaser 2 (Количество: 1)
Торрент-статистика

Создавать темы 18-Авг-2016 08:56

[Цитировать]

Садо / Престол / The Throne / Sado
Страна: Южная Корея
Производство: Tiger Pictures
Год выпуска: 2015
Жанр: драма, история
Продолжительность: 02:05:31
Режиссер: Ли Джун-ик
Авторы сценария: Чо Чхоль-хён, Ли Сон-вон, О Сын-хён
В ролях: Сон Кан-хо, Ю А-ин, Мун Гын-ён, Ким Хэ-сук, Пак Вон-сан, Чон Хе-джин, Чин Джи-хи, Пак Со-дам, Е Чжи Со, Со Джи-соп
Описание: Король Ёнджо стремится стать идеальным правителем. Его мать имеет самое низкое происхождение, и слухи говорят, что он убил своего старшего брата, чтобы стать королём. Сын у него родился поздно, и Ёнджо назначает его наследником престола. У короля самые высокие ожидания насчёт кронпринца, и требования тоже...

Перевод: Любительский (двухголосый, закадровый) | den904 & DeadSno
Субтитры: русские (2 вида), английские-Качество: BDRemux 1080p
Формат: MKV
Видео кодек: AVC
Аудио кодек: DTS
Видео: 1920x1080 (16:9), 23.976 fps, MPEG-4 AVC ~22.6 Mbps
Аудио №1: 48.0 kHz, Digital Theater Systems МА, 3/2 (L,C,R,l,r) + LFE ch, ~3840 kbps avg | RUS
Аудио №2: 48.0 kHz, Digital Theater Systems МА, 3/2 (L,C,R,l,r) + LFE ch, ~3840 kbps avg | KOR
Формат субтитров: UTF-8 Plain Text
Дата премьеры (мир): 16 сентября 2015
Релиз от:

Media Info

General
Уникальный идентификатор : 192464613470440621254851025097900823478 (0x90CB561348ECC6518C64EA5856AA13B6)
Полное имя : The.Throne.2015.BDRemux.1080p_by_vedigo.mkv
Формат : Matroska
Версия формата : Version 4 / Version 2
Размер файла : 26,6 Гбайт
Продолжительность : 2 ч. 5 м.
Режим общего битрейта : Переменный
Общий поток : 30,3 Мбит/сек
Название фильма : The.Throne.2015.BDRemux.1080p_by_vedigo
Дата кодирования : UTC 2016-08-15 02:35:23
Программа кодирования : mkvmerge v9.3.1 ('Mask Machine') 64bit
Библиотека кодирования : libebml v1.3.4 + libmatroska v1.4.5
Видео
Идентификатор : 1
Формат : AVC
Формат/Информация : Advanced Video Codec
Профиль формата : High@L4.1
Параметр CABAC формата : Да
Параметр ReFrames формата : 4 кадра
Идентификатор кодека : V_MPEG4/ISO/AVC
Продолжительность : 2 ч. 5 м.
Вид битрейта : Переменный
Битрейт : 22,6 Мбит/сек
Максимальный битрейт : 35,0 Мбит/сек
Ширина : 1920 пикселей
Высота : 1080 пикселей
Соотношение сторон : 16:9
Режим частоты кадров : Постоянный
Частота кадров : 23,976 (24000/1001) кадра/сек
Стандарт вещания : NTSC
Цветовое пространство : YUV
Субдискретизация насыщенности : 4:2:0
Битовая глубина : 8 бит
Тип развёртки : Прогрессивная
Бит/(Пиксели*Кадры) : 0.454
Размер потока : 19,8 Гбайт (74%)
Заголовок : The.Throne.2015.BDRemux.1080p_by_vedigo
Default : Да
Forced : Нет
Цветовой диапазон : Limited
Основные цвета : BT.709
Характеристики трансфера : BT.709
Коэффициенты матрицы : BT.709
Аудио #1
Идентификатор : 2
Формат : DTS
Формат/Информация : Digital Theater Systems
Профиль формата : MA / Core
Режим : 16
Параметр Endianness формата : Big
Идентификатор кодека : A_DTS
Продолжительность : 2 ч. 5 м.
Вид битрейта : Переменный / Постоянный
Битрейт : 3840 Кбит/сек / 1509 Кбит/сек
Каналы : 6 каналов
Расположение каналов : Front: L C R, Side: L R, LFE
Частота : 48,0 КГц
Частота кадров : 93,750 кадра/сек (512 spf)
Битовая глубина : 24 бит
Метод сжатия : Без потерь / Lossy
Размер потока : 3,40 Гбайт (13%)
Заголовок : DVO @ 2D
Язык : Russian
Default : Да
Forced : Нет
Аудио #2
Идентификатор : 3
Формат : DTS
Формат/Информация : Digital Theater Systems
Профиль формата : MA / Core
Режим : 16
Параметр Endianness формата : Big
Идентификатор кодека : A_DTS
Продолжительность : 2 ч. 5 м.
Вид битрейта : Переменный / Постоянный
Битрейт : 3840 Кбит/сек / 1509 Кбит/сек
Каналы : 6 каналов
Расположение каналов : Front: L C R, Side: L R, LFE
Частота : 48,0 КГц
Частота кадров : 93,750 кадра/сек (512 spf)
Битовая глубина : 24 бит
Метод сжатия : Без потерь / Lossy
Размер потока : 3,41 Гбайт (13%)
Заголовок : Original
Язык : Korean
Default : Нет
Forced : Нет
Текст #1
Идентификатор : 4
Формат : UTF-8
Идентификатор кодека : S_TEXT/UTF8
Идентификатор кодека/Информация : UTF-8 Plain Text
Продолжительность : 2 ч. 0 м.
Битрейт : 78 бит/сек
Count of elements : 1093
Размер потока : 69,3 Кбайт (0%)
Заголовок : Subtitle rus @ Seiya & Co
Язык : Russian
Default : Нет
Forced : Нет
Текст #2
Идентификатор : 5
Формат : UTF-8
Идентификатор кодека : S_TEXT/UTF8
Идентификатор кодека/Информация : UTF-8 Plain Text
Продолжительность : 1 ч. 57 м.
Битрейт : 94 бит/сек
Count of elements : 1409
Размер потока : 81,1 Кбайт (0%)
Заголовок : Subtitle rus @ FSG Crazy Cats
Язык : Russian
Default : Нет
Forced : Нет
Текст #3
Идентификатор : 6
Формат : UTF-8
Идентификатор кодека : S_TEXT/UTF8
Идентификатор кодека/Информация : UTF-8 Plain Text
Продолжительность : 1 ч. 56 м.
Битрейт : 47 бит/сек
Count of elements : 1150
Размер потока : 40,4 Кбайт (0%)
Заголовок : Subtitle eng
Язык : English
Default : Нет
Forced : Нет
Меню
00:00:00.000 : en:00:00:00.000
00:17:28.922 : en:00:17:28.922
00:28:29.624 : en:00:28:29.624
00:49:38.599 : en:00:49:38.599
01:06:03.876 : en:01:06:03.876
01:14:58.911 : en:01:14:58.911
01:37:57.746 : en:01:37:57.746
01:49:03.411 : en:01:49:03.411

Скриншоты

[Профиль] [ЛС]
Показать сообщения:    

Текущее время: Сегодня 22:09

Часовой пояс: GMT



Вы не можете начинать темы
Вы не можете отвечать на сообщения
Вы не можете редактировать свои сообщения
Вы не можете удалять свои сообщения
Вы не можете голосовать в опросах
Вы не можете прикреплять файлы к сообщениям
Вы не можете скачивать файлы