Садо / Престол / Sado (2015) BDRip 720p | L2

 
Автор Сообщение

Russian Mafia ®

Пол:

Стаж: 1 год 8 месяцев

Сообщений: 4252



Награды: 10 (Подробнее)

Mega Seeder 4 (Количество: 1) Top Releaser 5 (Количество: 1) За внесенный вклад в развитие сайта (Количество: 1)
Торрент-статистика

Создавать темы 18-Авг-2016 08:55

[Цитировать]

Информация о фильме
Название: Садо / Престол
Оригинальное название: Sado / The Throne
Год выхода: 2015
Жанр: Драма, исторический
Режиссер: Ли Джун-ик
В ролях: Сон Кан-хо, Ю А-ин, Мун Гын-ён, Ким Хэ-сук, Пак Вон-сан, Чон Хе-джин, Чин Джи-хи, Пак Со-дам, Е Чжи Со, Со Джи-соп
О фильме:
Сюжет охватывает период правления короля Ёнджо во времена династии Чосон. Это рассказ о бурных отношениях монарха с наследным принцем Садо, которые в конечном итоге привели к ужасной смерти молодого наследника. Основано на реальных событиях.
Номинация на Оскар от Южной Кореи в категории «Лучший фильм на иностранном языке».
[/url]
Производство: Южная Корея, Tiger Pictures
Продолжительность: 02:05:31
Перевод: Любительский (двухголосый, закадровый) [den904 & DeadSno]
Файл
Качество: BDRip 720p
Кодек: x264
Видео: 1280x536, 23.976 fps, ~4723 kbps avg, 0.287 bit/pixel
Аудио 1: 48.0 kHz, AC3 Dolby Digital, 3/2 (L,C,R,l,r) + LFE ch, 448 kbps | Двухголосый, закадровый
Аудио 2: 48.0 kHz, AC3 Dolby Digital, 3/2 (L,C,R,l,r) + LFE ch, 448 kbps | Оригинал
Субтитры: English

MediaInfo

General
Complete name : The.Throne.2015.BDRip.720p.x264.mkv
Format : Matroska
Format version : Version 4 / Version 2
File size : 4.92 GiB
Duration : 2h 5mn
Overall bit rate : 5 617 Kbps
Encoded date : UTC 2016-08-18 05:53:44
Writing application : mkvmerge v6.2.0 ('Promised Land') built on Apr 28 2013 18:50:30
Writing library : libebml v1.3.0 + libmatroska v1.4.0
DURATION : 01:56:46.708000000
NUMBER_OF_FRAMES : 1150
NUMBER_OF_BYTES : 41357
_STATISTICS_WRITING_APP : mkvmerge v8.3.0 ('Over the Horizon') 64bit
_STATISTICS_WRITING_DATE_UTC : 2016-07-19 15:21:47
_STATISTICS_TAGS : BPS DURATION NUMBER_OF_FRAMES NUMBER_OF_BYTES
Video
ID : 1
Format : AVC
Format/Info : Advanced Video Codec
Format profile : High@L4.1
Format settings, CABAC : Yes
Format settings, ReFrames : 5 frames
Codec ID : V_MPEG4/ISO/AVC
Duration : 2h 5mn
Bit rate : 4 723 Kbps
Width : 1 280 pixels
Height : 536 pixels
Display aspect ratio : 2.40:1
Frame rate : 23.976 fps
Color space : YUV
Chroma subsampling : 4:2:0
Bit depth : 8 bits
Scan type : Progressive
Bits/(Pixel*Frame) : 0.287
Stream size : 4.04 GiB (82%)
Writing library : x264 core 148 r2692 64f4e24
Encoding settings : cabac=1 / ref=5 / deblock=1:0:0 / analyse=0x3:0x133 / me=umh / subme=7 / psy=1 / psy_rd=1.00:0.00 / mixed_ref=1 / me_range=16 / chroma_me=1 / trellis=1 / 8x8dct=1 / cqm=0 / deadzone=21,11 / fast_pskip=0 / chroma_qp_offset=-2 / threads=12 / lookahead_threads=2 / sliced_threads=0 / nr=0 / decimate=1 / interlaced=0 / bluray_compat=0 / constrained_intra=0 / bframes=3 / b_pyramid=2 / b_adapt=1 / b_bias=0 / direct=1 / weightb=1 / open_gop=0 / weightp=2 / keyint=250 / keyint_min=23 / scenecut=40 / intra_refresh=0 / rc_lookahead=40 / rc=2pass / mbtree=1 / bitrate=4723 / ratetol=1.0 / qcomp=0.60 / qpmin=0 / qpmax=69 / qpstep=4 / cplxblur=20.0 / qblur=0.5 / ip_ratio=1.40 / aq=1:1.00
Language : Korean
DURATION : 02:05:30.911000000
NUMBER_OF_FRAMES : 180561
NUMBER_OF_BYTES : 4441747477
_STATISTICS_WRITING_APP : mkvmerge v8.3.0 ('Over the Horizon') 64bit
_STATISTICS_WRITING_DATE_UTC : 2016-07-19 15:21:47
_STATISTICS_TAGS : BPS DURATION NUMBER_OF_FRAMES NUMBER_OF_BYTES
Audio #1
ID : 2
Format : AC-3
Format/Info : Audio Coding 3
Mode extension : CM (complete main)
Codec ID : A_AC3
Duration : 2h 5mn
Bit rate mode : Constant
Bit rate : 448 Kbps
Channel(s) : 6 channels
Channel positions : Front: L C R, Side: L R, LFE
Sampling rate : 48.0 KHz
Bit depth : 16 bits
Compression mode : Lossy
Stream size : 402 MiB (8%)
Title : den904
Language : Russian
Audio #2
ID : 3
Format : AC-3
Format/Info : Audio Coding 3
Mode extension : CM (complete main)
Codec ID : A_AC3
Duration : 2h 5mn
Bit rate mode : Constant
Bit rate : 448 Kbps
Channel(s) : 6 channels
Channel positions : Front: L C R, Side: L R, LFE
Sampling rate : 48.0 KHz
Bit depth : 16 bits
Compression mode : Lossy
Stream size : 402 MiB (8%)
Title : Original
Language : Korean
Text
ID : 4
Format : UTF-8
Codec ID : S_TEXT/UTF8
Codec ID/Info : UTF-8 Plain Text
Title : English
Language : English
Menu
00:00:00.000 : en:00:00:00.000
00:17:28.923 : en:00:17:28.923
00:28:29.625 : en:00:28:29.625
00:49:38.601 : en:00:49:38.601
01:06:03.877 : en:01:06:03.877
01:14:58.911 : en:01:14:58.911
01:37:57.747 : en:01:37:57.747
01:49:03.412 : en:01:49:03.412

Скриншоты

[Профиль] [ЛС]
Кто просматривает тему:

Форум Тема Автор Размер
Азиатские фильмы Садо / Sado (2015) BDRemux 1080p | L2 Russian Mafia 26.6 GB
Азиатские фильмы Садо / Sado (2015) BDRip | L2 Russian Mafia 2.16 GB
Показать сообщения:    

Текущее время: Сегодня 22:43

Часовой пояс: GMT



Вы не можете начинать темы
Вы не можете отвечать на сообщения
Вы не можете редактировать свои сообщения
Вы не можете удалять свои сообщения
Вы не можете голосовать в опросах
Вы не можете прикреплять файлы к сообщениям
Вы не можете скачивать файлы