Сага о Сайге 1, 2 / Киік толғауы 1, 2 (Махсут Жаримбетов / Махсут Жәрімбетов) [2006, 2008, Казахстан, сказка, DVDRip] Dub

 
Автор Сообщение

TorrentFilm ®

Пол:

Стаж: 2 года

Сообщений: 7741



Награды: Нет

Торрент-статистика

Создавать темы 01-Мар-2016 00:08

[Цитировать]

Сага о Сайге 1, 2 / Киік толғауы 1, 2

Страна: Казахстан
Жанр: сказка
Продолжительность: 00:15:00 + 00:25:03
Год выпуска: 2006, 2008
Перевод: Профессиональный (дублированный)
Русские субтитры: нет

Режиссёр: Махсут Жаримбетов / Махсут Жәрімбетов
Роли озвучивали: Муминова З., Насыров Э., Хамраев Б., Максудов Ф., Твердохлёбов В., Исмаилов М., Бугаевский А.
Описание:
Сага о Сайге 1 (2006)
Право на жизнь есть у всего сущего на Земле. И хотя законы природы подчас суровы, они не сравнимы по жестокости с диктатом человека. Об этом - типичная история из сегодняшней жизни среднеазиатской степи. Центральные персонажи фильма - некогда изобиловавшие в этих краях сайгаки. По вине людей их количество уменьшается год от года. И ещё один вид животных на Земле может исчезнуть, если люди не победят в себе корысть и жестокость.
Сага о Сайге 2 (2008)
Это сказка, где степные антилопы говорят человеческим голосом, где есть место волшебству и фантазии. Рассказ о животных в такой форме пробуждает в детях чувство доброты, милосердие и сопереживание к тем, кто слабее нас и нуждается в защите. Здесь добро четко отделен от зла, а детям прививаются важнейшие морально-этические качества, так небходимые человеку в жизни. Мультфильм создан на основе детских сочинений и рассказов.
Качество: DVDRip
Формат: AVI
Сага о сайге:
Видео: 640x480 (1.33:1), 25 fps, XviD build 73 ~1999 kbps avg, 0.26 bit/pixel
Аудио: 48 kHz, MPEG Layer 3, 1 ch, ~128.00 kbps avg
Сага о сайге 2:
Видео: 640x480 (1.33:1), 25 fps, XviD build 73 ~1999 kbps avg, 0.26 bit/pixel
Аудио: 48 kHz, MPEG Layer 3, 1 ch, ~128.00 kbps avg
Субтитры: отсутствуют

Подробные технические данные

ОбщееПолное имя : H:\Сага.о.Сайге.2006-2008_[teko]\Сага.о.Сайге.2006.aviФормат : AVIФормат/Информация : Audio Video InterleaveРазмер файла : 229 МбайтПродолжительность : 15 м.Общий поток : 2137 Кбит/секПрограмма кодирования : VirtualDubMod 1.5.10.3 | www.virtualdub-fr.org || (build 2550/release)Библиотека кодирования : VirtualDubMod build 2550/release
ВидеоИдентификатор : 0Формат : MPEG-4 VisualПрофиль формата : Advanced Simple@L5Параметр BVOP формата : 2Параметр QPel формата : НетПараметр GMC формата : Без точки переходаПараметр матрицы формата : ВыборочнаяИдентификатор кодека : XVIDИдентификатор кодека/Подсказка : XviDПродолжительность : 15 м.Битрейт : 2000 Кбит/секШирина : 640 пикселейВысота : 480 пикселейСоотношение сторон : 4:3Частота кадров : 25,000 кадров/секЦветовое пространство : YUVСубдискретизация насыщенности : 4:2:0Битовая глубина : 8 битТип развёртки : ПрогрессивнаяМетод сжатия : С потерямиБит/(Пиксели*Кадры) : 0.260Размер потока : 215 Мбайт (94%)Библиотека кодирования : XviD 73
АудиоИдентификатор : 1Формат : MPEG AudioВерсия формата : Version 1Профиль формата : Layer 3Идентификатор кодека : 55Идентификатор кодека/Подсказка : MP3Продолжительность : 15 м.Вид битрейта : ПостоянныйБитрейт : 128 Кбит/секКаналы : 1 каналЧастота : 48,0 КГцМетод сжатия : С потерямиРазмер потока : 13,7 Мбайт (6%)Выравнивание : Соединение по промежуткамПродолжительность промежутка : 40 мс. (1,00 видеокадр)Время предзагрузки промежутка : 504 мс.-
-
-ОбщееПолное имя : H:\Сага.о.Сайге.2006-2008_[teko]\Сага.о.Сайге.2.2008.aviФормат : AVIФормат/Информация : Audio Video InterleaveРазмер файла : 383 МбайтПродолжительность : 25 м.Общий поток : 2138 Кбит/секПрограмма кодирования : VirtualDubMod 1.5.10.3 | www.virtualdub-fr.org || (build 2550/release)Библиотека кодирования : VirtualDubMod build 2550/release
ВидеоИдентификатор : 0Формат : MPEG-4 VisualПрофиль формата : Advanced Simple@L5Параметр BVOP формата : 2Параметр QPel формата : НетПараметр GMC формата : Без точки переходаПараметр матрицы формата : ВыборочнаяИдентификатор кодека : XVIDИдентификатор кодека/Подсказка : XviDПродолжительность : 25 м.Битрейт : 2000 Кбит/секШирина : 640 пикселейВысота : 480 пикселейСоотношение сторон : 4:3Частота кадров : 25,000 кадров/секЦветовое пространство : YUVСубдискретизация насыщенности : 4:2:0Битовая глубина : 8 битТип развёртки : ПрогрессивнаяМетод сжатия : С потерямиБит/(Пиксели*Кадры) : 0.260Размер потока : 358 Мбайт (94%)Библиотека кодирования : XviD 73
АудиоИдентификатор : 1Формат : MPEG AudioВерсия формата : Version 1Профиль формата : Layer 3Идентификатор кодека : 55Идентификатор кодека/Подсказка : MP3Продолжительность : 25 м.Вид битрейта : ПостоянныйБитрейт : 128 Кбит/секКаналы : 1 каналЧастота : 48,0 КГцМетод сжатия : С потерямиРазмер потока : 22,9 Мбайт (6%)Выравнивание : Соединение по промежуткамПродолжительность промежутка : 40 мс. (1,00 видеокадр)Время предзагрузки промежутка : 504 мс.Библиотека кодирования : LAME3.90.3
Релиз группы:
--
[Профиль] [ЛС]
Кто просматривает тему:

Показать сообщения:    

Текущее время: Сегодня 01:28

Часовой пояс: GMT



Вы не можете начинать темы
Вы не можете отвечать на сообщения
Вы не можете редактировать свои сообщения
Вы не можете удалять свои сообщения
Вы не можете голосовать в опросах
Вы не можете прикреплять файлы к сообщениям
Вы не можете скачивать файлы