Саботаж / Sabotage (2014) BDRip 1080p от ExKinoRay | D, A | Лицензия

 
Автор Сообщение

sergej644 ®

Пол:

Стаж: 4 года 11 месяцев

Сообщений: 6035

Откуда: Soviet Union



Награды: Нет

Торрент-статистика

Создавать темы 23-Янв-2015 23:53

[Цитировать]

Информация о фильме
Название: Саботаж
Оригинальное название: Sabotage
Год выпуска: 2014
Жанр: Боевик, триллер, драма, криминал
Выпущено: США, 5150 Action, Albert S. Ruddy Productions, Crave Films, DEA Productions, Open Road Films (II), QED International, Roth Films
Режиссер: Дэвид Эйр
В ролях: Арнольд Шварценеггер, Терренс Ховард, Сэм Уортингтон, Макс Мартини, Оливия Уильямс, Мартин Донован, Мирей Инос, Кевин Вэнс, Джо Манганьелло, Джош Холлоуэй
О фильме: История начинается с операции элитного подразделения из управления по борьбе с наркотиками, нагрянувшего на явочную квартиру наркокартеля. Команда решает скрыть от начальства, что в результате налёта они обогатились на миллионы долларов, но вскоре хранить тайну становится всё сложнее: кто-то по одному убирает всех участвовавших в операции.

Файл
Качество: BDRip (1080p)
Видео: MPEG-4 AVC, 11111 Кбит/с, 1920x1040, 23.976 кадр/с
Аудио: Русский (AC3, 6 ch, 640 Кбит/с), (DTS, 6 ch, 1509 Кбит/c), английский (DTS, 6 ch, 1509 Кбит/c)
Размер: 14.61 ГБ
Продолжительность: 01:49:41
Перевод: Дублированный
Субтитры: Русские, английские
--------------------------------------------------------------------------
Аудио1: Русский (AC3, 6 ch, 640 Кбит/с) - Дублированный (Лицензия)
Аудио2: Русский (AC3, 6 ch, 640 Кбит/с) - Авторский одноголосый закадровый (Д.Есарев)
Аудио3: Русский (AC3, 6 ch, 640 Кбит/с) - Авторский одноголосый закадровый (А.Матвеев)
Аудио4: Русский (DTS, 6 ch, 1509 Кбит/с) - Дублированный (Лицензия)
Аудио5: Русский (DTS, 6 ch, 1509 Кбит/с) - Авторский одноголосый закадровый (Д.Есарев)
Аудио6: Русский (DTS, 6 ch, 1509 Кбит/с) - Авторский одноголосый закадровый (А.Матвеев)
-------------------------------------------------------------------------
Перевод Д.Есарева доступен благодаря пользователям "Переулка Переводмана": Skazhutin, будулайроманов, mihey10, mihaildns, ZeDOK, dikii.
Перевод А.Матвеева доступен благодаря пользователям "Переулка Переводмана": будулайроманов, dikii.
-------------------------------------------------------------------------
Сохранены оригинальные чаптеры как на Blu-Ray.

Инфо-файл

x264 [info]: frame I:1119 Avg QP:16.06 size:241701
x264 [info]: frame P:40895 Avg QP:19.33 size: 88079
x264 [info]: frame B:115754 Avg QP:20.54 size: 45493
---------------------------------------------------------
Общее
Уникальный идентификатор : 207383076141188234075761847443460392052 (0x9C048712C18F4324859991352D0B0474)
Полное имя : D:ЗагрузкиSabotage.2014.x264.BDRip.(1080p).ExKinoRay.mkv
Формат : Matroska
Версия формата : Version 2
Размер файла : 14,6 Гбайт
Продолжительность : 1 ч. 49 м.
Общий поток : 19,1 Мбит/сек
Название фильма : Саботаж.2014.Rip by: ollan
Дата кодирования : UTC 2014-07-26 20:59:37
Программа кодирования : mkvmerge v5.6.0 ('Kenya Kane') built on May 27 2012 16:44:04
Библиотека кодирования : libebml v1.2.3 + libmatroska v1.3.0
Видео
Идентификатор : 1
Формат : AVC
Формат/Информация : Advanced Video Codec
Профиль формата : High@L4.1
Параметр CABAC формата : Да
Параметр ReFrames формата : 5 кадров
Идентификатор кодека : V_MPEG4/ISO/AVC
Продолжительность : 1 ч. 49 м.
Битрейт : 11,1 Мбит/сек
Ширина : 1920 пикселей
Высота : 1040 пикселей
Соотношение сторон : 1,85:1
Режим частоты кадров : Постоянный
Частота кадров : 23,976 кадра/сек
Цветовое пространство : YUV
Субдискретизация насыщенности : 4:2:0
Битовая глубина : 8 бит
Тип развёртки : Прогрессивная
Бит/(Пиксели*Кадры) : 0.232
Размер потока : 8,22 Гбайт (56%)
Библиотека кодирования : x264 core 125 r2200 999b753
Настройки программы : cabac=1 / ref=5 / deblock=1:-3:-3 / analyse=0x3:0x133 / me=umh / subme=11 / psy=1 / psy_rd=1.00:0.10 / mixed_ref=1 / me_range=32 / chroma_me=1 / trellis=2 / 8x8dct=1 / cqm=0 / deadzone=21,11 / fast_pskip=0 / chroma_qp_offset=-3 / threads=12 / lookahead_threads=2 / sliced_threads=0 / nr=0 / decimate=0 / interlaced=0 / bluray_compat=0 / constrained_intra=0 / bframes=9 / b_pyramid=2 / b_adapt=2 / b_bias=0 / direct=3 / weightb=1 / open_gop=0 / weightp=2 / keyint=240 / keyint_min=23 / scenecut=40 / intra_refresh=0 / rc_lookahead=40 / rc=2pass / mbtree=1 / bitrate=11111 / ratetol=1.0 / qcomp=0.60 / qpmin=0 / qpmax=69 / qpstep=4 / cplxblur=20.0 / qblur=0.5 / ip_ratio=1.40 / aq=1:1.00
Язык : English
Default : Да
Forced : Нет
Аудио #1
Идентификатор : 2
Формат : AC-3
Формат/Информация : Audio Coding 3
Расширение режима : CM (complete main)
Параметр Endianness формата : Big
Идентификатор кодека : A_AC3
Продолжительность : 1 ч. 49 м.
Вид битрейта : Постоянный
Битрейт : 640 Кбит/сек
Каналы : 6 каналов
Расположение каналов : Front: L C R, Side: L R, LFE
Частота : 48,0 КГц
Битовая глубина : 16 бит
Метод сжатия : С потерями
Размер потока : 502 Мбайт (3%)
Заголовок : Дублированный (Лицензия)
Язык : Russian
Default : Да
Forced : Нет
Аудио #2
Идентификатор : 3
Формат : AC-3
Формат/Информация : Audio Coding 3
Расширение режима : CM (complete main)
Параметр Endianness формата : Big
Идентификатор кодека : A_AC3
Продолжительность : 1 ч. 49 м.
Вид битрейта : Постоянный
Битрейт : 640 Кбит/сек
Каналы : 6 каналов
Расположение каналов : Front: L C R, Side: L R, LFE
Частота : 48,0 КГц
Битовая глубина : 16 бит
Метод сжатия : С потерями
Размер потока : 502 Мбайт (3%)
Заголовок : Авторский одноголосый (Д.Есарев)
Язык : Russian
Default : Нет
Forced : Нет
Аудио #3
Идентификатор : 4
Формат : AC-3
Формат/Информация : Audio Coding 3
Расширение режима : CM (complete main)
Параметр Endianness формата : Big
Идентификатор кодека : A_AC3
Продолжительность : 1 ч. 49 м.
Вид битрейта : Постоянный
Битрейт : 640 Кбит/сек
Каналы : 6 каналов
Расположение каналов : Front: L C R, Side: L R, LFE
Частота : 48,0 КГц
Битовая глубина : 16 бит
Метод сжатия : С потерями
Размер потока : 502 Мбайт (3%)
Заголовок : Авторский одноголосый (А.Матвеев)
Язык : Russian
Default : Нет
Forced : Нет
Аудио #4
Идентификатор : 5
Формат : DTS
Формат/Информация : Digital Theater Systems
Режим : 16
Параметр Endianness формата : Big
Идентификатор кодека : A_DTS
Продолжительность : 1 ч. 49 м.
Вид битрейта : Постоянный
Битрейт : 1509 Кбит/сек
Каналы : 6 каналов
Расположение каналов : Front: L C R, Side: L R, LFE
Частота : 48,0 КГц
Битовая глубина : 16 бит
Метод сжатия : С потерями
Размер потока : 1,16 Гбайт (8%)
Заголовок : Дублированный (Лицензия)
Язык : Russian
Default : Нет
Forced : Нет
Аудио #5
Идентификатор : 6
Формат : DTS
Формат/Информация : Digital Theater Systems
Режим : 16
Параметр Endianness формата : Big
Идентификатор кодека : A_DTS
Продолжительность : 1 ч. 49 м.
Вид битрейта : Постоянный
Битрейт : 1509 Кбит/сек
Каналы : 6 каналов
Расположение каналов : Front: L C R, Side: L R, LFE
Частота : 48,0 КГц
Битовая глубина : 24 бит
Метод сжатия : С потерями
Размер потока : 1,16 Гбайт (8%)
Заголовок : Авторский одноголосый (Д.Есарев)
Язык : Russian
Default : Нет
Forced : Нет
Аудио #6
Идентификатор : 7
Формат : DTS
Формат/Информация : Digital Theater Systems
Режим : 16
Параметр Endianness формата : Big
Идентификатор кодека : A_DTS
Продолжительность : 1 ч. 49 м.
Вид битрейта : Постоянный
Битрейт : 1509 Кбит/сек
Каналы : 6 каналов
Расположение каналов : Front: L C R, Side: L R, LFE
Частота : 48,0 КГц
Битовая глубина : 24 бит
Метод сжатия : С потерями
Размер потока : 1,16 Гбайт (8%)
Заголовок : Авторский одноголосый (А.Матвеев)
Язык : Russian
Default : Нет
Forced : Нет
Аудио #7
Идентификатор : 8
Формат : DTS
Формат/Информация : Digital Theater Systems
Режим : 16
Параметр Endianness формата : Big
Идентификатор кодека : A_DTS
Продолжительность : 1 ч. 49 м.
Вид битрейта : Постоянный
Битрейт : 1509 Кбит/сек
Каналы : 6 каналов
Расположение каналов : Front: L C R, Side: L R, LFE
Частота : 48,0 КГц
Битовая глубина : 24 бит
Метод сжатия : С потерями
Размер потока : 1,16 Гбайт (8%)
Язык : English
Default : Нет
Forced : Нет
Текст #1
Идентификатор : 9
Формат : UTF-8
Идентификатор кодека : S_TEXT/UTF8
Идентификатор кодека/Информация : UTF-8 Plain Text
Заголовок : Notabenoid
Язык : Russian
Default : Нет
Forced : Нет
Текст #2
Идентификатор : 10
Формат : UTF-8
Идентификатор кодека : S_TEXT/UTF8
Идентификатор кодека/Информация : UTF-8 Plain Text
Заголовок : А.Матвеев
Язык : Russian
Default : Нет
Forced : Нет
Текст #3
Идентификатор : 11
Формат : UTF-8
Идентификатор кодека : S_TEXT/UTF8
Идентификатор кодека/Информация : UTF-8 Plain Text
Заголовок : Full
Язык : English
Default : Нет
Forced : Нет
Меню
00:00:00.000 : en:Chapter 01
00:09:58.556 : en:Chapter 02
00:13:13.125 : en:Chapter 03
00:19:44.308 : en:Chapter 04
00:25:16.931 : en:Chapter 05
00:30:09.599 : en:Chapter 06
00:34:21.976 : en:Chapter 07
00:37:33.376 : en:Chapter 08
00:43:00.744 : en:Chapter 09
00:48:32.117 : en:Chapter 10
00:53:13.106 : en:Chapter 11
00:57:38.621 : en:Chapter 12
01:03:43.778 : en:Chapter 13
01:07:59.450 : en:Chapter 14
01:14:38.557 : en:Chapter 15
01:18:42.551 : en:Chapter 16
01:22:41.164 : en:Chapter 17
01:28:49.490 : en:Chapter 18
01:35:39.316 : en:Chapter 19
01:42:47.828 : en:Chapter 20
01:49:39.990 : en:Chapter 21

Скриншоты



[Профиль] [ЛС]
Показать сообщения:    

Текущее время: Сегодня 22:32

Часовой пояс: GMT



Вы не можете начинать темы
Вы не можете отвечать на сообщения
Вы не можете редактировать свои сообщения
Вы не можете удалять свои сообщения
Вы не можете голосовать в опросах
Вы не можете прикреплять файлы к сообщениям
Вы не можете скачивать файлы