Саботаж / Sabotage (Дэвид Эйр / David Ayer) [2014, США, боевик, триллер, драма, криминал, BDRip-AVC] Dub + Sub (Rus,Eng)

 
Автор Сообщение

reversefile ®

Пол:

Стаж: 4 года 5 месяцев

Сообщений: 842

Откуда: ReverseFile.org



Награды: Нет

Торрент-статистика

Создавать темы 11-Авг-2014 10:41

[Цитировать]

Саботаж / Sabotage-«Неудержимые снова в деле» -Страна: США
Студии: Open Road Films, QED International, Roth Films
Жанр: боевик, триллер, драма, криминал
Год выпуска: 2014
Продолжительность: 01:49:40
Перевод: Профессиональный (дублированный) | Лицензия |
Cубтитры: Русские, английские
Оригинальная аудиодорожка: нет-Режиссер: Дэвид Эйр / David Ayer-В ролях: Арнольд Шварценеггер, Сэм Уортингтон, Оливия Уильямс, Терренс Ховард, Джо Манганьелло, Джош Холлоуэй, Мирей Инос, Мартин Донован, Макс Мартини, Кевин Вэнс...-Описание: История начинается с операции элитного подразделения из управления по борьбе с наркотиками, нагрянувшего на явочную квартиру наркокартеля. Команда решает скрыть от начальства, что в результате налёта они обогатились на миллионы долларов, но вскоре хранить тайну становится всё сложнее: кто-то по одному убирает всех участвовавших в операции.- -Качество видео: BDRip-AVC | Sabotage.2014.BluRay.1080p.AVC.DTS-HD.MA5.1-CHDBits |
Формат видео: MKV
Видео: AVC, 1024x554, 23.976 fps, 2394 kbps, 0.176 bit/pixel
Аудио: 48 kHz, AC3 Dolby Digital, 3/2 (L,C,R,l,r) + LFE ch, 448.00 kbps-Дополнительно: Сохранены оригинальные чаптеры (главы) как на Blu-ray
-

Дополнительно о фильме:

Производство, студия дубляжа, прокат:

Знаете ли вы, что...

MediaInfo

General
Unique ID : 207532649844776398047516174083785450530 (0x9C2155A04FBB250DEBA174E52A676422)
Complete name : D:\Rip's_By_Flash\Sabotage.2014.BDRip-AVC.mkv
Format : Matroska
Format version : Version 2
File size : 2.17 GiB
Duration : 1h 49mn
Overall bit rate : 2 839 Kbps
Video
ID : 1
Format : AVC
Format/Info : Advanced Video Codec
Format profile : High@L4.1
Format settings, CABAC : Yes
Format settings, ReFrames : 9 frames
Codec ID : V_MPEG4/ISO/AVC
Duration : 1h 49mn
Bit rate : 2 394 Kbps
Width : 1 024 pixels
Height : 554 pixels
Display aspect ratio : 1.85:1
Frame rate mode : Constant
Frame rate : 23.976 fps
Color space : YUV
Chroma subsampling : 4:2:0
Bit depth : 8 bits
Scan type : Progressive
Bits/(Pixel*Frame) : 0.176
Stream size : 1.79 GiB (82%)
Writing library : x264 core 125 r2208 d9d2288
Encoding settings : cabac=1 / ref=9 / deblock=1:-1:-1 / analyse=0x3:0x133 / me=umh / subme=11 / psy=1 / psy_rd=1.00:0.20 / mixed_ref=1 / me_range=32 / chroma_me=1 / trellis=2 / 8x8dct=1 / cqm=0 / deadzone=21,11 / fast_pskip=0 / chroma_qp_offset=-3 / threads=12 / lookahead_threads=2 / sliced_threads=0 / nr=0 / decimate=1 / interlaced=0 / bluray_compat=0 / constrained_intra=0 / bframes=8 / b_pyramid=2 / b_adapt=2 / b_bias=0 / direct=3 / weightb=1 / open_gop=0 / weightp=2 / keyint=250 / keyint_min=23 / scenecut=40 / intra_refresh=0 / rc=2pass / mbtree=0 / bitrate=2394 / ratetol=1.0 / qcomp=0.60 / qpmin=0 / qpmax=69 / qpstep=4 / cplxblur=20.0 / qblur=0.5 / ip_ratio=1.10 / pb_ratio=1.10 / aq=1:1.00
Language : English
Default : Yes
Forced : No
Audio
ID : 2
Format : AC-3
Format/Info : Audio Coding 3
Mode extension : CM (complete main)
Format settings, Endianness : Big
Codec ID : A_AC3
Duration : 1h 49mn
Bit rate mode : Constant
Bit rate : 448 Kbps
Channel(s) : 6 channels
Channel positions : Front: L C R, Side: L R, LFE
Sampling rate : 48.0 KHz
Bit depth : 16 bits
Compression mode : Lossy
Stream size : 351 MiB (16%)
Language : Russian
Default : Yes
Forced : Yes
Text #1
ID : 3
Format : UTF-8
Codec ID : S_TEXT/UTF8
Codec ID/Info : UTF-8 Plain Text
Language : Russian
Default : No
Forced : No
Text #2
ID : 4
Format : UTF-8
Codec ID : S_TEXT/UTF8
Codec ID/Info : UTF-8 Plain Text
Language : English
Default : No
Forced : No
Menu
00:00:00.000 : en:00:00:00.000
00:09:58.556 : en:00:09:58.556
00:13:13.126 : en:00:13:13.126
00:19:44.308 : en:00:19:44.308
00:25:16.932 : en:00:25:16.932
00:30:09.599 : en:00:30:09.599
00:34:21.977 : en:00:34:21.977
00:37:33.376 : en:00:37:33.376
00:43:00.745 : en:00:43:00.745
00:48:32.118 : en:00:48:32.118
00:53:13.107 : en:00:53:13.107
00:57:38.622 : en:00:57:38.622
01:03:43.778 : en:01:03:43.778
01:07:59.450 : en:01:07:59.450
01:14:38.557 : en:01:14:38.557
01:18:42.551 : en:01:18:42.551
01:22:41.165 : en:01:22:41.165
01:28:49.491 : en:01:28:49.491
01:35:39.317 : en:01:35:39.317
01:42:47.828 : en:01:42:47.828

Скриншот c названием фильма

Скриншоты

[Профиль] [ЛС]
Показать сообщения:    

Текущее время: Сегодня 11:00

Часовой пояс: GMT



Вы не можете начинать темы
Вы не можете отвечать на сообщения
Вы не можете редактировать свои сообщения
Вы не можете удалять свои сообщения
Вы не можете голосовать в опросах
Вы не можете прикреплять файлы к сообщениям
Вы не можете скачивать файлы