Саботаж / Sabotage (1996) BDRip 720p | P2

 
Автор Сообщение

Russian Mafia ®

Пол:

Стаж: 1 год 8 месяцев

Сообщений: 4256



Награды: 10 (Подробнее)

Top Releaser 4 (Количество: 1) Mega Seeder 1 (Количество: 1) Top Releaser 5 (Количество: 1)
Торрент-статистика

Создавать темы 14-Сен-2015 13:39

[Цитировать]

Информация о фильме
Название: Саботаж
Оригинальное название: Sabotage
Год выхода: 1996
Жанр: Боевик, триллер, драма
Режиссер: Тибор Такач
В ролях: Марк Дакаскос, Кэрри-Энн Мосс, Тони Тодд, Грэм Грин, Джон Невилл, Джеймс Пёрселл, Сара Розен Фруитман, Ричард Култер, Хайди фон Паллеске, Джон Пол Янг и др.
О фильме:
Бывший морской пехотинец Майк Бишоп участвует в провальной операции по спасению заложников. Получив 7 ранений от руки профессионального убийцы, Бишоп чудом остается жив... Несколько лет спустя семья, в которой Бишоп работает телохранителем, становится жертвой того же убийцы. Объединившись со спецагентом ФБР, Бишоп вступает в смертельную схватку с суперкиллером, и ничьей в этой борьбе быть не может...

Страна: Канада
Студия: Apple Creek Productions, Applecreek Communications Inc.
Продолжительность: 01:39:28
Перевод: Профессиональный (двухголосый закадровый) | R5
Файл
Кодек: AVC
Качество: BDRip 720p
Видео: 1280x720, 23.976 fps, 4500 kbps
Звук: 48 kHz, AC3, 3/2 (L,C,R,l,r) + LFE ch, ~384 kbps--

M/I

General
Unique ID : 301501612605314058608420969025926527772 (0xE2D31930BA0D554F487B3E66038AFB1C)
Complete name : F:FILMSСаботаж_1996_BLU-RAY.720p.[-=DoMiNo=-].mkv
Format : Matroska
Format version : Version 4 / Version 2
File size : 3.39 GiB
Duration : 1h 39mn
Overall bit rate : 4 886 Kbps
Writing application : XviD4PSP 7.0.170
Writing library : Lavf56.25.101
ENCODING_INFO : BluRay > MKV 720p / H264 > X264 VBR-2P 4500kbps Custom / AC3 > COPY
Video
ID : 1
Format : AVC
Format/Info : Advanced Video Codec
Format profile : High@L4.1
Format settings, CABAC : Yes
Format settings, ReFrames : 8 frames
Codec ID : V_MPEG4/ISO/AVC
Duration : 1h 39mn
Bit rate : 4 500 Kbps
Width : 1 280 pixels
Height : 720 pixels
Display aspect ratio : 16:9
Frame rate mode : Constant
Frame rate : 23.976 fps
Color space : YUV
Chroma subsampling : 4:2:0
Bit depth : 8 bits
Scan type : Progressive
Bits/(Pixel*Frame) : 0.204
Stream size : 3.06 GiB (90%)
Writing library : x264 core 148 r2597M e86f3a1
Encoding settings : cabac=1 / ref=8 / deblock=1:-3:-3 / analyse=0x3:0x133 / me=umh / subme=10 / psy=1 / psy_rd=1.00:0.20 / mixed_ref=1 / me_range=32 / chroma_me=1 / trellis=2 / 8x8dct=1 / cqm=0 / deadzone=21,11 / fast_pskip=0 / chroma_qp_offset=-3 / threads=5 / lookahead_threads=1 / sliced_threads=0 / nr=0 / decimate=1 / interlaced=0 / bluray_compat=0 / constrained_intra=0 / bframes=10 / b_pyramid=2 / b_adapt=2 / b_bias=0 / direct=3 / weightb=1 / open_gop=0 / weightp=2 / keyint=230 / keyint_min=23 / scenecut=40 / intra_refresh=0 / rc=2pass / mbtree=0 / bitrate=4500 / ratetol=1.0 / qcomp=0.60 / qpmin=0 / qpmax=69 / qpstep=4 / cplxblur=20.0 / qblur=0.5 / ip_ratio=1.40 / pb_ratio=1.30 / aq=1:1.00
Default : Yes
Forced : No
Color range : Limited
Color primaries : BT.709
Transfer characteristics : BT.709
Matrix coefficients : BT.709
Audio
ID : 2
Format : AC-3
Format/Info : Audio Coding 3
Mode extension : CM (complete main)
Format settings, Endianness : Big
Codec ID : A_AC3
Duration : 1h 39mn
Bit rate mode : Constant
Bit rate : 384 Kbps
Channel(s) : 6 channels
Channel positions : Front: L C R, Side: L R, LFE
Sampling rate : 48.0 KHz
Bit depth : 32 bits
Compression mode : Lossy
Stream size : 273 MiB (8%)
Language : Russian
Default : Yes
Forced : No
Menu
00:00:00.000 : :Глава 1
00:08:20.208 : :Глава 2
00:21:19.444 : :Глава 3
00:36:09.792 : :Глава 4
00:51:31.171 : :Глава 5
01:07:56.989 : :Глава 6
01:21:55.535 : :Глава 7
01:32:16.988 : :Глава 8
01:39:25.167 : :Глава 9
-- --
[Профиль] [ЛС]
Показать сообщения:    

Текущее время: Сегодня 02:24

Часовой пояс: GMT



Вы не можете начинать темы
Вы не можете отвечать на сообщения
Вы не можете редактировать свои сообщения
Вы не можете удалять свои сообщения
Вы не можете голосовать в опросах
Вы не можете прикреплять файлы к сообщениям
Вы не можете скачивать файлы