Сабата: Трилогия / Sabata: Trilogy (1969-1971) BDRip 1080p | P2, A

 
Автор Сообщение

sergej644 ®

Пол:

Стаж: 4 года 11 месяцев

Сообщений: 6041

Откуда: Soviet Union



Награды: Нет

Торрент-статистика

Создавать темы 18-Июн-2015 21:51

[Цитировать]

Сабата / Ehi amico... c'è Sabata, hai chiuso! (1969)
Информация о фильме
Название: Сабата
Оригинальное название: Ehi amico... c'è Sabata, hai chiuso!
Год выхода: 1969
Жанр: вестерн
Режиссер: Джанфранко Паролини
В ролях: Ли Ван Клиф, Вильям Бергер, Игнацио Спалла, Альдо Канти, Франко Рессель, Антонио Градоли, Линда Верас, Клаудио Ундани, Джанни Риццо, Спартако Конверси
О фильме: Несколько преступников грабят банк на сто тысяч долларов, они думают, что все уже позади, но по их следу пускается бесстрашный ковбой Сабата, мастер оружия, который преподнесет бандитам хороший урок.

Выпущено: United Artists
Продолжительность: 01:46:13
Перевод: Профессиональный двухголосый закадровый (НТВ+) + авторский одноголосый закадровый (С.Кузнецов)
Файл
Кодек: x264
Качество: BDRip (источник: Blu-ray Disc)
Видео: 1920x820 (2,35:1), 23.976 fps, 9880 kbps
Аудио #1: AC-3, 2 ch, 192 kbps (Rus)
Аудио #2: AC-3, 2 ch, 192 kbps (Rus)
Аудио #3: AC-3, 2 ch, 192 kbps (Eng)
Субтитры: Нет
Скачать: сэмпл--

MI

General
Unique ID : 237144290448734007389983624425465559747 (0xB268543A1A24E80ABEAADF50A799BAC3)
Complete name : D:Sabata.Trilogy.1969-1971.BDRip.1080p.Rus.Ita.EngEhi.amico.c.e.Sabata.hai.chiuso.1969.BDRip.1080p.Rus.Eng.mkv
Format : Matroska
Format version : Version 2
File size : 7.76 GiB
Duration : 1h 46mn
Overall bit rate : 10.5 Mbps
Movie name : Сабата / Ehi amico... c'è Sabata, hai chiuso! (1969)
Encoded date : UTC 2015-06-06 06:57:07
Writing application : mkvmerge v5.8.0 ('No Sleep / Pillow') built on Sep 2 2012 15:37:04
Writing library : libebml v1.2.3 + libmatroska v1.3.0
Attachements : cover.png / logfile.log
Video
ID : 1
Format : AVC
Format/Info : Advanced Video Codec
Format profile : High@L4.1
Format settings, CABAC : Yes
Format settings, ReFrames : 5 frames
Codec ID : V_MPEG4/ISO/AVC
Duration : 1h 46mn
Bit rate : 9 880 Kbps
Width : 1 920 pixels
Height : 820 pixels
Display aspect ratio : 2.35:1
Frame rate mode : Constant
Frame rate : 23.976 fps
Color space : YUV
Chroma subsampling : 4:2:0
Bit depth : 8 bits
Scan type : Progressive
Bits/(Pixel*Frame) : 0.262
Stream size : 7.18 GiB (93%)
Title : Сабата / Ehi amico... c'è Sabata, hai chiuso! (1969)
Writing library : x264 core 146 r0+2586 e393126 t_mod_Custom [8-bit@all X86_64]
Encoding settings : cabac=1 / ref=5 / deblock=1:-3:-3 / analyse=0x3:0x133 / me=umh / subme=10 / psy=1 / fade_compensate=0.00 / psy_rd=1.05:0.00 / mixed_ref=1 / me_range=32 / chroma_me=1 / trellis=2 / 8x8dct=1 / cqm=0 / deadzone=21,11 / fast_pskip=0 / chroma_qp_offset=-2 / threads=12 / lookahead_threads=3 / sliced_threads=0 / nr=0 / decimate=1 / interlaced=0 / bluray_compat=0 / constrained_intra=0 / fgo=0 / bframes=10 / b_pyramid=2 / b_adapt=2 / b_bias=0 / direct=3 / weightb=1 / open_gop=0 / weightp=2 / keyint=240 / keyint_min=23 / scenecut=40 / intra_refresh=0 / rc=2pass / mbtree=0 / bitrate=9880 / ratetol=1.0 / qcomp=0.70 / qpmin=0:0:0 / qpmax=69:69:69 / qpstep=4 / cplxblur=20.0 / qblur=0.5 / ip_ratio=1.40 / pb_ratio=1.30 / aq=1:0.70 / aq-sensitivity=10.00 / aq-factor=1.00:1.00:1.00 / aq2=0 / aq3=0
Language : Italian
Default : Yes
Forced : No
Audio #1
ID : 2
Format : AC-3
Format/Info : Audio Coding 3
Mode extension : CM (complete main)
Format settings, Endianness : Big
Codec ID : A_AC3
Duration : 1h 46mn
Bit rate mode : Constant
Bit rate : 192 Kbps
Channel(s) : 2 channels
Channel positions : Front: L R
Sampling rate : 48.0 KHz
Bit depth : 16 bits
Compression mode : Lossy
Stream size : 146 MiB (2%)
Title : Двухголосый закадровый, НТВ+
Language : Russian
Default : Yes
Forced : No
Audio #2
ID : 3
Format : AC-3
Format/Info : Audio Coding 3
Mode extension : CM (complete main)
Format settings, Endianness : Big
Codec ID : A_AC3
Duration : 1h 46mn
Bit rate mode : Constant
Bit rate : 192 Kbps
Channel(s) : 2 channels
Channel positions : Front: L R
Sampling rate : 48.0 KHz
Bit depth : 16 bits
Compression mode : Lossy
Stream size : 146 MiB (2%)
Title : Одноголосый закадровый, С.Кузнецов
Language : Russian
Default : No
Forced : No
Audio #3
ID : 4
Format : AC-3
Format/Info : Audio Coding 3
Mode extension : CM (complete main)
Format settings, Endianness : Big
Codec ID : A_AC3
Duration : 1h 46mn
Bit rate mode : Constant
Bit rate : 192 Kbps
Channel(s) : 2 channels
Channel positions : Front: L R
Sampling rate : 48.0 KHz
Bit depth : 16 bits
Compression mode : Lossy
Stream size : 146 MiB (2%)
Title : English
Language : English
Default : No
Forced : No
Menu
00:00:00.000 : :Chapter 01
00:07:05.424 : :Chapter 02
00:22:06.325 : :Chapter 03
00:28:34.838 : :Chapter 04
00:35:17.990 : :Chapter 05
00:43:45.623 : :Chapter 06
00:58:12.822 : :Chapter 07
01:05:35.598 : :Chapter 08
01:16:22.411 : :Chapter 09
01:26:54.167 : :Chapter 10
01:36:42.046 : :Chapter 11

x264

x264 [info]: frame I:881 Avg QP:17.44 size:141996
x264 [info]: frame P:32938 Avg QP:19.51 size: 74849
x264 [info]: frame B:118981 Avg QP:21.74 size: 44380
x264 [info]: consecutive B-frames: 2.1% 3.4% 12.2% 11.7% 11.7% 41.6% 6.7% 1.2% 5.7% 1.2% 2.5%
--Скриншоты

Прощай, Сабата / Indio Black, sai che ti dico: Sei un gran figlio di... (1970)

Информация о фильме
Название: Прощай, Сабата
Оригинальное название: Indio Black, sai che ti dico: Sei un gran figlio di...
Год выхода: 1970
Жанр: вестерн
Режиссер: Джанфранко Паролини
В ролях: Юл Бриннер, Дин Рид, Игнацио Спалла, Жерар Хертер, Сальваторе Боргезе, Франко Фантазия, Джозеф П. Персауд, Андреа Скотти, Ниевес Наварро, Лучано Касамоника
О фильме: Сабата, лучший стрелок дикого запада, помогает мексиканским повстанцам украсть повозку с золотом, на которое революционеры планируют купить оружие. Однако на это золото уже успела позариться и местная бандитская шайка.

Выпущено: United Artists
Продолжительность: 01:45:09
Перевод: Профессиональный двухголосый закадровый (НТВ+) + авторский одноголосый закадровый (С.Кузнецов)
Файл
Кодек: x264
Качество: BDRip (источник: Blu-ray Disc)
Видео: 1916x820 (2,35:1), 23.976 fps, 9795 kbps
Аудио #1: AC-3, 2 ch, 192 kbps (Rus)
Аудио #2: AC-3, 2 ch, 192 kbps (Rus)
Аудио #3: AC-3, 2 ch, 192 kbps (Ita)
Аудио #4: AC-3, 2 ch, 192 kbps (Eng)
Субтитры: Нет
Скачать: сэмпл
Скриншоты

MI

General
Unique ID : 212619925879610151731038589049636518022 (0x9FF51BB3289B4451A57B6C7008B9F886)
Complete name : D:Sabata.Trilogy.1969-1971.BDRip.1080p.Rus.Ita.EngIndio.black.sai.che.ti.dico.sei.un.gran.figlio.di.1970.BDRip.1080p.Rus.Ita.Eng.mkv
Format : Matroska
Format version : Version 2
File size : 7.76 GiB
Duration : 1h 45mn
Overall bit rate : 10.6 Mbps
Movie name : Прощай, Сабата / Indio Black, sai che ti dico: Sei un gran figlio di... (1970)
Encoded date : UTC 2015-06-06 07:05:02
Writing application : mkvmerge v5.8.0 ('No Sleep / Pillow') built on Sep 2 2012 15:37:04
Writing library : libebml v1.2.3 + libmatroska v1.3.0
Attachements : cover.png / logfile.log
Video
ID : 1
Format : AVC
Format/Info : Advanced Video Codec
Format profile : High@L4.1
Format settings, CABAC : Yes
Format settings, ReFrames : 5 frames
Codec ID : V_MPEG4/ISO/AVC
Duration : 1h 45mn
Bit rate : 9 795 Kbps
Width : 1 916 pixels
Height : 820 pixels
Display aspect ratio : 2.35:1
Frame rate mode : Constant
Frame rate : 23.976 fps
Color space : YUV
Chroma subsampling : 4:2:0
Bit depth : 8 bits
Scan type : Progressive
Bits/(Pixel*Frame) : 0.260
Stream size : 7.04 GiB (91%)
Title : Прощай, Сабата / Indio Black, sai che ti dico: Sei un gran figlio di... (1970)
Writing library : x264 core 146 r0+2586 e393126 t_mod_Custom [8-bit@all X86_64]
Encoding settings : cabac=1 / ref=5 / deblock=1:-3:-3 / analyse=0x3:0x133 / me=umh / subme=10 / psy=1 / fade_compensate=0.00 / psy_rd=1.05:0.00 / mixed_ref=1 / me_range=32 / chroma_me=1 / trellis=2 / 8x8dct=1 / cqm=0 / deadzone=21,11 / fast_pskip=0 / chroma_qp_offset=-2 / threads=12 / lookahead_threads=3 / sliced_threads=0 / nr=0 / decimate=1 / interlaced=0 / bluray_compat=0 / constrained_intra=0 / fgo=0 / bframes=10 / b_pyramid=2 / b_adapt=2 / b_bias=0 / direct=3 / weightb=1 / open_gop=0 / weightp=2 / keyint=240 / keyint_min=23 / scenecut=40 / intra_refresh=0 / rc=2pass / mbtree=0 / bitrate=9795 / ratetol=1.0 / qcomp=0.70 / qpmin=0:0:0 / qpmax=69:69:69 / qpstep=4 / cplxblur=20.0 / qblur=0.5 / ip_ratio=1.40 / pb_ratio=1.30 / aq=1:0.70 / aq-sensitivity=10.00 / aq-factor=1.00:1.00:1.00 / aq2=0 / aq3=0
Language : Italian
Default : Yes
Forced : No
Audio #1
ID : 2
Format : AC-3
Format/Info : Audio Coding 3
Mode extension : CM (complete main)
Format settings, Endianness : Big
Codec ID : A_AC3
Duration : 1h 45mn
Bit rate mode : Constant
Bit rate : 192 Kbps
Channel(s) : 2 channels
Channel positions : Front: L R
Sampling rate : 48.0 KHz
Bit depth : 16 bits
Compression mode : Lossy
Stream size : 145 MiB (2%)
Title : Двухголосый закадровый, НТВ+
Language : Russian
Default : Yes
Forced : No
Audio #2
ID : 3
Format : AC-3
Format/Info : Audio Coding 3
Mode extension : CM (complete main)
Format settings, Endianness : Big
Codec ID : A_AC3
Duration : 1h 45mn
Bit rate mode : Constant
Bit rate : 192 Kbps
Channel(s) : 2 channels
Channel positions : Front: L R
Sampling rate : 48.0 KHz
Bit depth : 16 bits
Compression mode : Lossy
Stream size : 145 MiB (2%)
Title : Одноголосый закадровый, С.Кузнецов
Language : Russian
Default : No
Forced : No
Audio #3
ID : 4
Format : AC-3
Format/Info : Audio Coding 3
Mode extension : CM (complete main)
Format settings, Endianness : Big
Codec ID : A_AC3
Duration : 1h 45mn
Bit rate mode : Constant
Bit rate : 192 Kbps
Channel(s) : 2 channels
Channel positions : Front: L R
Sampling rate : 48.0 KHz
Bit depth : 16 bits
Compression mode : Lossy
Stream size : 145 MiB (2%)
Title : Italian
Language : Italian
Default : No
Forced : No
Audio #4
ID : 5
Format : AC-3
Format/Info : Audio Coding 3
Mode extension : CM (complete main)
Format settings, Endianness : Big
Codec ID : A_AC3
Duration : 1h 45mn
Bit rate mode : Constant
Bit rate : 192 Kbps
Channel(s) : 2 channels
Channel positions : Front: L R
Sampling rate : 48.0 KHz
Bit depth : 16 bits
Compression mode : Lossy
Stream size : 145 MiB (2%)
Title : English
Language : English
Default : No
Forced : No
Menu
00:00:00.000 : :Chapter 01
00:08:23.753 : :Chapter 02
00:16:14.848 : :Chapter 03
00:28:50.103 : :Chapter 04
00:33:12.657 : :Chapter 05
00:41:24.064 : :Chapter 06
00:53:45.430 : :Chapter 07
01:00:10.732 : :Chapter 08
01:07:44.268 : :Chapter 09
01:17:50.666 : :Chapter 10
01:24:40.784 : :Chapter 11
01:32:08.314 : :Chapter 12

x264

x264 [info]: frame I:861 Avg QP:20.10 size:150387
x264 [info]: frame P:33143 Avg QP:22.36 size: 79328
x264 [info]: frame B:117275 Avg QP:24.39 size: 42350
x264 [info]: consecutive B-frames: 2.0% 3.0% 8.4% 20.9% 17.6% 32.1% 7.7% 3.6% 2.3% 1.9% 0.4%

Возвращение Сабаты / È tornato Sabata... hai chiuso un'altra volta! (1971)

Информация о фильме
Название: Возвращение Сабаты
Оригинальное название: È tornato Sabata... hai chiuso un'altra volta!
Год выхода: 1971
Жанр: вестерн
Режиссер: Джанфранко Паролини
В ролях: Ли Ван Клиф, Рейнер Шёне, Джампьеро Альбертини, Игнацио Спалла, Аннабелла Инконтрера, Жаклин Александр, Альдо Канти, Вассили Керис, Стеффен Захариас, Пиа Джанкаро
О фильме: На этот раз Сабата оказывается в городке Хобсонвилль, жители которого обложены непомерными налогами. Сабата отказывается платить обнаглевшим бандитам и решает освободить город от тирании.

Выпущено: United Artists
Продолжительность: 01:45:46
Перевод: Профессиональный двухголосый закадровый (НТВ+) + авторский одноголосый закадровый (С.Кузнецов)
Файл
Кодек: x264
Качество: BDRip (источник: Blu-ray Disc)
Видео: 1916x820 (2,35:1), 23.976 fps, 9730 kbps
Аудио #1: AC-3, 2 ch, 192 kbps (Rus)
Аудио #2: AC-3, 2 ch, 192 kbps (Rus)
Аудио #3: AC-3, 2 ch, 192 kbps (Ita)
Аудио #4: AC-3, 2 ch, 192 kbps (Eng)
Субтитры: Нет
Скачать: сэмпл
Скриншоты

MI

General
Unique ID : 193080313435484930441205697179935525940 (0x9141EA6D64A7010B814A6727C5DF4C34)
Complete name : D:Sabata.Trilogy.1969-1971.BDRip.1080p.Rus.Ita.EngE.tornato.Sabata.hai.chiuso.un'altra.volta.1971.BDRip.1080p.Rus.Ita.Eng.mkv
Format : Matroska
Format version : Version 2
File size : 7.76 GiB
Duration : 1h 45mn
Overall bit rate : 10.5 Mbps
Movie name : Возвращение Сабаты / È tornato Sabata... hai chiuso un'altra volta! (1971)
Encoded date : UTC 2015-06-07 23:38:13
Writing application : mkvmerge v5.8.0 ('No Sleep / Pillow') built on Sep 2 2012 15:37:04
Writing library : libebml v1.2.3 + libmatroska v1.3.0
Attachements : cover.png / logfile.log
Video
ID : 1
Format : AVC
Format/Info : Advanced Video Codec
Format profile : High@L4.1
Format settings, CABAC : Yes
Format settings, ReFrames : 5 frames
Codec ID : V_MPEG4/ISO/AVC
Duration : 1h 45mn
Bit rate : 9 730 Kbps
Width : 1 916 pixels
Height : 820 pixels
Display aspect ratio : 2.35:1
Frame rate mode : Constant
Frame rate : 23.976 fps
Color space : YUV
Chroma subsampling : 4:2:0
Bit depth : 8 bits
Scan type : Progressive
Bits/(Pixel*Frame) : 0.258
Stream size : 7.04 GiB (91%)
Title : Возвращение Сабаты / È tornato Sabata... hai chiuso un'altra volta! (1971)
Writing library : x264 core 146 r0+2586 e393126 t_mod_Custom [8-bit@all X86_64]
Encoding settings : cabac=1 / ref=5 / deblock=1:-3:-3 / analyse=0x3:0x133 / me=umh / subme=10 / psy=1 / fade_compensate=0.00 / psy_rd=1.05:0.00 / mixed_ref=1 / me_range=32 / chroma_me=1 / trellis=2 / 8x8dct=1 / cqm=0 / deadzone=21,11 / fast_pskip=0 / chroma_qp_offset=-2 / threads=12 / lookahead_threads=3 / sliced_threads=0 / nr=0 / decimate=1 / interlaced=0 / bluray_compat=0 / constrained_intra=0 / fgo=0 / bframes=10 / b_pyramid=2 / b_adapt=2 / b_bias=0 / direct=3 / weightb=1 / open_gop=0 / weightp=2 / keyint=240 / keyint_min=23 / scenecut=40 / intra_refresh=0 / rc=2pass / mbtree=0 / bitrate=9730 / ratetol=1.0 / qcomp=0.70 / qpmin=0:0:0 / qpmax=69:69:69 / qpstep=4 / cplxblur=20.0 / qblur=0.5 / ip_ratio=1.40 / pb_ratio=1.30 / aq=1:0.70 / aq-sensitivity=10.00 / aq-factor=1.00:1.00:1.00 / aq2=0 / aq3=0
Language : Italian
Default : Yes
Forced : No
Audio #1
ID : 2
Format : AC-3
Format/Info : Audio Coding 3
Mode extension : CM (complete main)
Format settings, Endianness : Big
Codec ID : A_AC3
Duration : 1h 45mn
Bit rate mode : Constant
Bit rate : 192 Kbps
Channel(s) : 2 channels
Channel positions : Front: L R
Sampling rate : 48.0 KHz
Bit depth : 16 bits
Compression mode : Lossy
Stream size : 145 MiB (2%)
Title : Двухголосый закадровый, НТВ+
Language : Russian
Default : Yes
Forced : No
Audio #2
ID : 3
Format : AC-3
Format/Info : Audio Coding 3
Mode extension : CM (complete main)
Format settings, Endianness : Big
Codec ID : A_AC3
Duration : 1h 45mn
Bit rate mode : Constant
Bit rate : 192 Kbps
Channel(s) : 2 channels
Channel positions : Front: L R
Sampling rate : 48.0 KHz
Bit depth : 16 bits
Compression mode : Lossy
Stream size : 145 MiB (2%)
Title : Одноголосый закадровый, С.Кузнецов
Language : Russian
Default : No
Forced : No
Audio #3
ID : 4
Format : AC-3
Format/Info : Audio Coding 3
Mode extension : CM (complete main)
Format settings, Endianness : Big
Codec ID : A_AC3
Duration : 1h 45mn
Bit rate mode : Constant
Bit rate : 192 Kbps
Channel(s) : 2 channels
Channel positions : Front: L R
Sampling rate : 48.0 KHz
Bit depth : 16 bits
Compression mode : Lossy
Stream size : 145 MiB (2%)
Title : Italian
Language : Italian
Default : No
Forced : No
Audio #4
ID : 5
Format : AC-3
Format/Info : Audio Coding 3
Mode extension : CM (complete main)
Format settings, Endianness : Big
Codec ID : A_AC3
Duration : 1h 45mn
Bit rate mode : Constant
Bit rate : 192 Kbps
Channel(s) : 2 channels
Channel positions : Front: L R
Sampling rate : 48.0 KHz
Bit depth : 16 bits
Compression mode : Lossy
Stream size : 145 MiB (2%)
Title : English
Language : English
Default : No
Forced : No
Menu
00:00:00.000 : :Chapter 01
00:10:42.475 : :Chapter 02
00:17:05.607 : :Chapter 03
00:25:07.631 : :Chapter 04
00:39:36.749 : :Chapter 05
00:50:18.724 : :Chapter 06
00:59:26.229 : :Chapter 07
01:07:07.690 : :Chapter 08
01:14:42.186 : :Chapter 09
01:24:55.548 : :Chapter 10
01:32:45.977 : :Chapter 11
01:37:58.872 : :Chapter 12

x264

x264 [info]: frame I:922 Avg QP:19.55 size:153387
x264 [info]: frame P:32894 Avg QP:21.91 size: 79710
x264 [info]: frame B:118350 Avg QP:23.99 size: 41874
x264 [info]: consecutive B-frames: 1.8% 2.9% 8.5% 21.6% 17.6% 30.2% 8.4% 3.8% 2.7% 2.0% 0.5%
[Профиль] [ЛС]
Показать сообщения:    

Текущее время: Сегодня 03:12

Часовой пояс: GMT



Вы не можете начинать темы
Вы не можете отвечать на сообщения
Вы не можете редактировать свои сообщения
Вы не можете удалять свои сообщения
Вы не можете голосовать в опросах
Вы не можете прикреплять файлы к сообщениям
Вы не можете скачивать файлы