Рэтчет и Кланк: Галактические рейнджеры / Ratchet & Clank (2016) WEB-DL 720p | iTunes

 
Автор Сообщение

достали все ®

Пол:

Стаж: 1 год 8 месяцев

Сообщений: 6630



Награды: 12 (Подробнее)

Top Releaser 4 (Количество: 1) За внесенный вклад в развитие сайта (Количество: 1) Mega Seeder 2 (Количество: 1)
Торрент-статистика

Создавать темы 02-Июн-2016 03:36

[Цитировать]

Информация о фильме
Название: Рэтчет и Кланк: Галактические рейнджеры
Оригинальное название: Ratchet & Clank
Год выхода: 2016
Жанр: мультфильм, фантастика, боевик, комедия, приключения
Режиссер: Кевин Манро, Джерика Клилэнд
В ролях: Джеймс Арнольд Тейлор, Дэвид Кэй, Джим Уорд, Don Briggs, Йен Джеймс Корлетт, Эндрю Каунден, Розарио Доусон, Брайан Добсон, Брайан Драммонд, Пол Джаматти
О фильме: Большеухий ловкач Рэтчет всегда мечтал присоединиться к Галактическим космическим рейнджерам, но самовлюбленный супергерой Капитан Кварк не принимает его в команду. И все же, когда робот Кланк приносит весть о коварном плане злодея Дрека из расы Блэрг создать новую планету для своего вида, предварительно избавившись от рейнджеров и уничтожив Солнечную систему, миссия по спасению галактики ложится именно на пушистые плечи остряка Рэтчета. А металлический Кланк становится его верным спутником и помощником.

Выпущено: Гонконг, Канада, США
Продолжительность: 01:33:51
Озвучивание: Дублированное [iTunes]
Файл
Формат: MKV
Качество: WEB-DL 720p
Видео: MPEG-4 AVC, 3863 kb/s, 1280x536
Аудио: AC3, 384 kb/s (6 ch)

MI

Format : Matroska
Format version : Version 2
File size : 2.84 GiB
Duration : 1h 33mn
Overall bit rate : 4 333 Kbps
Encoded date : UTC 2016-06-01 19:38:10
Writing application : mkvmerge v8.3.0 ('Over the Horizon') 64bit
Writing library : libebml v1.3.1 + libmatroska v1.4.2
Video
ID : 1
Format : AVC
Format/Info : Advanced Video Codec
Format profile : Main@L3.1
Format settings, CABAC : No
Format settings, ReFrames : 2 frames
Codec ID : V_MPEG4/ISO/AVC
Duration : 1h 33mn
Bit rate : 3 863 Kbps
Width : 1 280 pixels
Height : 536 pixels
Display aspect ratio : 2.40:1
Frame rate mode : Constant
Frame rate : 24.000 fps
Color space : YUV
Chroma subsampling : 4:2:0
Bit depth : 8 bits
Scan type : Progressive
Bits/(Pixel*Frame) : 0.235
Stream size : 2.53 GiB (89%)
Language : English
Default : Yes
Forced : No
Color range : Limited
Color primaries : BT.709
Transfer characteristics : BT.709
Matrix coefficients : BT.709
Audio
ID : 2
Format : AC-3
Format/Info : Audio Coding 3
Mode extension : CM (complete main)
Format settings, Endianness : Big
Codec ID : A_AC3
Duration : 1h 33mn
Bit rate mode : Constant
Bit rate : 384 Kbps
Channel(s) : 6 channels
Channel positions : Front: L C R, Side: L R, LFE
Sampling rate : 48.0 KHz
Bit depth : 16 bits
Compression mode : Lossy
Stream size : 258 MiB (9%)
Language : Russian
Default : Yes
Forced : No
Menu
00:00:00.000 : en:Глава 1
00:05:49.958 : en:Глава 2
00:11:17.166 : en:Глава 3
00:17:28.166 : en:Глава 4
00:23:30.666 : en:Глава 5
00:29:32.416 : en:Глава 6
00:36:10.249 : en:Глава 7
00:41:41.124 : en:Глава 8
00:47:24.124 : en:Глава 9
00:52:57.499 : en:Глава 10
00:58:43.332 : en:Глава 11
01:04:17.665 : en:Глава 12
01:09:45.373 : en:Глава 13
01:15:52.706 : en:Глава 14
01:21:20.706 : en:Глава 15

Скриншоты




[Профиль] [ЛС]
Показать сообщения:    

Текущее время: Сегодня 14:07

Часовой пояс: GMT



Вы не можете начинать темы
Вы не можете отвечать на сообщения
Вы не можете редактировать свои сообщения
Вы не можете удалять свои сообщения
Вы не можете голосовать в опросах
Вы не можете прикреплять файлы к сообщениям
Вы не можете скачивать файлы