Рэмбо: Трилогия / Rambo: The Trilogy (1982-1988) BDRip 1080p | The Ultimate Uncut Edition

 
Автор Сообщение

Russian Mafia ®

Пол:

Стаж: 1 год 8 месяцев

Сообщений: 4257



Награды: 10 (Подробнее)

Top Releaser 5 (Количество: 1) Mega Seeder 5 (Количество: 1) Mega Seeder 3 (Количество: 1)
Торрент-статистика

Создавать темы 27-Сен-2015 10:25

[Цитировать]

Жанр: боевик, триллер, драма, приключенияГод выпуска: 1982 / 1985 / 1988Продолжительность: 01:33:16 / 01:36:00 / 01:41:44Режиссёр: Тед Котчефф, Джордж Пан Косматос, Питер МакДональд«Война одного человека...»

Рэмбо: Первая кровь / First Blood (1982) BDRip 1080p

Информация о фильме
Название: Рэмбо: Первая кровь
Оригинальное название: First Blood
Год выхода: 1982
Жанр: боевик, триллер, драма, приключения
Режиссер: Тед Котчефф
В ролях: Сильвестр Сталлоне, Ричард Кренна, Брайан Деннехи, Билл МакКинни, Jack Starrett, Michael Talbott, Крис Малки, John McLiam, Альф Хэмпфри, Дэвид Карузо, Дэвид Л. Краули, Дон Маккэй, Чарльз А. Тамбурро, Дэвид Петерсен, Крэйг Хьюстон, Патрик Стэк, Стивен Э. Миллер, Raimund Stamm, Роберт Меткалф, Steve Dimopollos, Брюс Гринвуд
О фильме:
Он - эксперт. Эксперт по оружию, ножам и собственному телу. Он человек, специально обученный не замечать боль и погодные условия.
Во Вьетнаме его задание было уничтожать вражеский личный состав. Много убивать. Истощать силы врага до полной победы. Рэмбо был лучший. На войне он был героем, а на родине, во имя которой поливалась кровь, он никому не нужен.
Не способный приспособиться к мирной жизни Рэмбо путешествует автостопом по городам Америки, встречаясь с однополчанами. Путешествие прекращает провинциальный шериф, ненавидящий бродяг.
Попавший в тюрьму по ложному обвинению, вкусивший унижений со стороны администрации, Рэмбо объявляет войну. Войну существующему отношению к ветеранам, беспределу официальных структур и главе местной полиции лично.
Совершив фантастический побег из тюрьмы, Джон начинает партизанскую войну в местных лесах. Очень скоро ситуация выходит из под контроля властей и в маленький город вводят части регулярной армии. Бывший боевой командир Джона Рэмбо смог дать лишь один комментарий: «Раз ты привел сюда так много людей, то приготовь побольше мешков для трупов».

Выпущено: США
Студия: Orion Pictures
Продолжительность: 01:33:16
Перевод: Профессиональный многоголосый закадровый + Оригинал
Файл
Кодек: x264
Качество: BDRip (источник: Blu-ray Disc)
Видео: 1920x818 (2,35:1), 23.976 fps, 11564 kbps
Аудио #1: AC-3, 2 ch, 320 kbps (Rus)
Аудио #2: AC-3, 2 ch, 320 kbps (Eng)
Субтитры: Русские, Английские
Скачать: семпл
Скриншоты

MI

Общее
Уникальный идентификатор : 216095158470752841128948783130708372702 (0xA29269E533ACEC199D1138BB70616CDE)
Полное имя : E:Рэмбо (Трилогия)First.Blood.1982.BDRip.1080p.Rus.Eng.mkv
Формат : Matroska
Версия формата : Version 4 / Version 2
Размер файла : 7,95 Гбайт
Продолжительность : 1 ч. 33 м.
Общий поток : 12,2 Мбит/сек
Название фильма : Рэмбо: Первая кровь / First Blood (1982)
Дата кодирования : UTC 2013-08-24 12:26:28
Программа кодирования : mkvmerge v6.3.0 ('You can't stop me!') built on Jun 28 2013 20:09:41
Библиотека кодирования : libebml v1.3.0 + libmatroska v1.4.0
Видео
Идентификатор : 1
Формат : AVC
Формат/Информация : Advanced Video Codec
Профиль формата : High@L4.1
Параметр CABAC формата : Да
Параметр ReFrames формата : 5 кадров
Идентификатор кодека : V_MPEG4/ISO/AVC
Продолжительность : 1 ч. 33 м.
Битрейт : 11,6 Мбит/сек
Ширина : 1920 пикселей
Высота : 818 пикселей
Соотношение сторон : 2,35:1
Режим частоты кадров : Постоянный
Частота кадров : 23,976 кадра/сек
Цветовое пространство : YUV
Субдискретизация насыщенности : 4:2:0
Битовая глубина : 8 бит
Тип развёртки : Прогрессивная
Бит/(Пиксели*Кадры) : 0.307
Размер потока : 7,38 Гбайт (93%)
Заголовок : Release by N1NT3NDO
Библиотека кодирования : x264 core 135 r2345 f0c1c53
Настройки программы : cabac=1 / ref=5 / deblock=1:-3:-3 / analyse=0x3:0x133 / me=umh / subme=11 / psy=1 / psy_rd=1.00:0.00 / mixed_ref=1 / me_range=32 / chroma_me=1 / trellis=2 / 8x8dct=1 / cqm=0 / deadzone=21,11 / fast_pskip=0 / chroma_qp_offset=-2 / threads=12 / lookahead_threads=1 / sliced_threads=0 / nr=0 / decimate=0 / interlaced=0 / bluray_compat=0 / constrained_intra=0 / bframes=6 / b_pyramid=2 / b_adapt=2 / b_bias=0 / direct=3 / weightb=1 / open_gop=0 / weightp=2 / keyint=240 / keyint_min=23 / scenecut=40 / intra_refresh=0 / rc=2pass / mbtree=0 / bitrate=11564 / ratetol=1.0 / qcomp=0.60 / qpmin=0 / qpmax=69 / qpstep=4 / cplxblur=20.0 / qblur=0.5 / ip_ratio=1.40 / pb_ratio=1.30 / aq=1:0.70
Язык : English
Default : Да
Forced : Нет
Аудио #1
Идентификатор : 2
Формат : AC-3
Формат/Информация : Audio Coding 3
Расширение режима : CM (complete main)
Параметр Endianness формата : Big
Идентификатор кодека : A_AC3
Продолжительность : 1 ч. 33 м.
Вид битрейта : Постоянный
Битрейт : 320 Кбит/сек
Каналы : 2 канала
Расположение каналов : Front: L R
Частота : 48,0 КГц
Битовая глубина : 16 бит
Метод сжатия : С потерями
Размер потока : 213 Мбайт (3%)
Заголовок : Rus
Язык : Russian
Default : Да
Forced : Нет
Аудио #2
Идентификатор : 3
Формат : AC-3
Формат/Информация : Audio Coding 3
Расширение режима : CM (complete main)
Параметр Endianness формата : Big
Идентификатор кодека : A_AC3
Продолжительность : 1 ч. 33 м.
Вид битрейта : Постоянный
Битрейт : 320 Кбит/сек
Каналы : 2 канала
Расположение каналов : Front: L R
Частота : 48,0 КГц
Битовая глубина : 16 бит
Метод сжатия : С потерями
Размер потока : 213 Мбайт (3%)
Заголовок : Eng
Язык : English
Default : Нет
Forced : Нет
Текст #1
Идентификатор : 4
Формат : UTF-8
Идентификатор кодека : S_TEXT/UTF8
Идентификатор кодека/Информация : UTF-8 Plain Text
Заголовок : Rus
Язык : Russian
Default : Нет
Forced : Нет
Текст #2
Идентификатор : 5
Формат : UTF-8
Идентификатор кодека : S_TEXT/UTF8
Идентификатор кодека/Информация : UTF-8 Plain Text
Заголовок : Eng
Язык : English
Default : Нет
Forced : Нет
Меню
00:00:00.000 : :Chapter 01
00:04:59.674 : :Chapter 02
00:09:53.843 : :Chapter 03
00:17:36.555 : :Chapter 04
00:23:19.481 : :Chapter 05
00:30:46.427 : :Chapter 06
00:36:53.920 : :Chapter 07
00:42:11.946 : :Chapter 08
00:48:37.539 : :Chapter 09
00:53:55.273 : :Chapter 10
01:00:01.431 : :Chapter 11
01:08:01.744 : :Chapter 12
01:13:48.006 : :Chapter 13
01:17:42.366 : :Chapter 14
01:22:46.544 : :Chapter 15
01:29:44.337 : :Chapter 16

Рэмбо: Первая кровь 2 / Rambo: First Blood Part II (1985) BDRip 1080p

Информация о фильме
Название: Рэмбо: Первая кровь 2
Оригинальное название: Rambo: First Blood Part II
Год выхода: 1985
Жанр: боевик, триллер, драма, приключения
Режиссер: Джордж Пан Косматос
В ролях: Сильвестр Сталлоне, Ричард Кренна, Чарльз Напье, Стивен Беркофф, Мартин Коув, Джордж Чунг, Энди Вуд, Дэна Ли, Стив Уильямс, Дон Коллинз, Кристофер Грант, Тони Мунафо, Роджер Кадни
О фильме:
Джон Рэмбо отбывает наказание в тюрьме строгого режима. Он смирился со своей участью, но несмотря на свое положение, он продолжает чтить основные заповеди военного братства: верить напарнику, прикрывать его спину, отдать свою жизнь за него и свою страну.
Когда полковник Траутман, бывший боевой командир Рэмбо предлагает ему отправиться во Вьетнам, на спецоперацию по спасению оставшихся в плену американских солдат, он не раздумывая соглашается.

Выпущено: США
Студия: Tri-Star Pictures
Продолжительность: 01:36:00
Перевод: Профессиональный многоголосый закадровый + Оригинал
Файл
Кодек: x264
Качество: BDRip (источник: Blu-ray Disc)
Видео: 1920x816 (2,35:1), 23.976 fps, 11217 kbps
Аудио #1: AC-3, 2 ch, 320 kbps (Rus)
Аудио #2: AC-3, 2 ch, 320 kbps (Eng)
Субтитры: Русские, Английские
Скачать: семпл
Скриншоты

MI

Общее
Уникальный идентификатор : 219569359539999807088212924027839097626 (0xA52F853B9BBD02E3AC63D0BE473EAB1A)
Полное имя : E:Рэмбо (Трилогия)Rambo.First.Blood.Part.II.1985.BDRip.1080p.Rus.Eng.mkv
Формат : Matroska
Версия формата : Version 4 / Version 2
Размер файла : 7,95 Гбайт
Продолжительность : 1 ч. 36 м.
Общий поток : 11,8 Мбит/сек
Название фильма : Рэмбо: Первая кровь 2 / Rambo: First Blood Part II (1985)
Дата кодирования : UTC 2013-08-24 12:14:51
Программа кодирования : mkvmerge v6.3.0 ('You can't stop me!') built on Jun 28 2013 20:09:41
Библиотека кодирования : libebml v1.3.0 + libmatroska v1.4.0
Видео
Идентификатор : 1
Формат : AVC
Формат/Информация : Advanced Video Codec
Профиль формата : High@L4.1
Параметр CABAC формата : Да
Параметр ReFrames формата : 5 кадров
Идентификатор кодека : V_MPEG4/ISO/AVC
Продолжительность : 1 ч. 36 м.
Битрейт : 11,2 Мбит/сек
Ширина : 1920 пикселей
Высота : 816 пикселей
Соотношение сторон : 2,35:1
Режим частоты кадров : Постоянный
Частота кадров : 23,976 кадра/сек
Цветовое пространство : YUV
Субдискретизация насыщенности : 4:2:0
Битовая глубина : 8 бит
Тип развёртки : Прогрессивная
Бит/(Пиксели*Кадры) : 0.299
Размер потока : 7,36 Гбайт (93%)
Заголовок : Release by N1NT3NDO
Библиотека кодирования : x264 core 135 r2345 f0c1c53
Настройки программы : cabac=1 / ref=5 / deblock=1:-3:-3 / analyse=0x3:0x133 / me=umh / subme=11 / psy=1 / psy_rd=1.00:0.00 / mixed_ref=1 / me_range=32 / chroma_me=1 / trellis=2 / 8x8dct=1 / cqm=0 / deadzone=21,11 / fast_pskip=0 / chroma_qp_offset=-2 / threads=12 / lookahead_threads=1 / sliced_threads=0 / nr=0 / decimate=0 / interlaced=0 / bluray_compat=0 / constrained_intra=0 / bframes=6 / b_pyramid=2 / b_adapt=2 / b_bias=0 / direct=3 / weightb=1 / open_gop=0 / weightp=2 / keyint=240 / keyint_min=23 / scenecut=40 / intra_refresh=0 / rc=2pass / mbtree=0 / bitrate=11217 / ratetol=1.0 / qcomp=0.60 / qpmin=0 / qpmax=69 / qpstep=4 / cplxblur=20.0 / qblur=0.5 / ip_ratio=1.40 / pb_ratio=1.30 / aq=1:0.70
Язык : English
Default : Да
Forced : Нет
Аудио #1
Идентификатор : 2
Формат : AC-3
Формат/Информация : Audio Coding 3
Расширение режима : CM (complete main)
Параметр Endianness формата : Big
Идентификатор кодека : A_AC3
Продолжительность : 1 ч. 36 м.
Вид битрейта : Постоянный
Битрейт : 320 Кбит/сек
Каналы : 2 канала
Расположение каналов : Front: L R
Частота : 48,0 КГц
Битовая глубина : 16 бит
Метод сжатия : С потерями
Размер потока : 220 Мбайт (3%)
Заголовок : Rus
Язык : Russian
Default : Да
Forced : Нет
Аудио #2
Идентификатор : 3
Формат : AC-3
Формат/Информация : Audio Coding 3
Расширение режима : CM (complete main)
Параметр Endianness формата : Big
Идентификатор кодека : A_AC3
Продолжительность : 1 ч. 36 м.
Вид битрейта : Постоянный
Битрейт : 320 Кбит/сек
Каналы : 2 канала
Расположение каналов : Front: L R
Частота : 48,0 КГц
Битовая глубина : 16 бит
Метод сжатия : С потерями
Размер потока : 220 Мбайт (3%)
Заголовок : Eng
Язык : English
Default : Нет
Forced : Нет
Текст #1
Идентификатор : 4
Формат : UTF-8
Идентификатор кодека : S_TEXT/UTF8
Идентификатор кодека/Информация : UTF-8 Plain Text
Заголовок : Rus
Язык : Russian
Default : Нет
Forced : Нет
Текст #2
Идентификатор : 5
Формат : UTF-8
Идентификатор кодека : S_TEXT/UTF8
Идентификатор кодека/Информация : UTF-8 Plain Text
Заголовок : Eng
Язык : English
Default : Нет
Forced : Нет
Меню
00:00:00.000 : :Chapter 01
00:03:35.506 : :Chapter 02
00:10:58.240 : :Chapter 03
00:17:16.201 : :Chapter 04
00:23:00.212 : :Chapter 05
00:28:46.224 : :Chapter 06
00:35:47.270 : :Chapter 07
00:40:54.827 : :Chapter 08
00:47:55.664 : :Chapter 09
00:55:20.692 : :Chapter 10
01:03:10.453 : :Chapter 11
01:11:59.815 : :Chapter 12
01:18:35.711 : :Chapter 13
01:22:23.855 : :Chapter 14
01:28:18.543 : :Chapter 15
01:32:35.675 : :Chapter 16

Рэмбо 3 / Rambo III (1988) BDRip 1080p

Информация о фильме
Название: Рэмбо 3
Оригинальное название: Rambo III
Год выхода: 1988
Жанр: боевик, триллер, драма, приключения
Режиссер: Питер МакДональд
В ролях: Сильвестр Сталлоне, Ричард Кренна, Кертвуд Смит, Рэнди Рэни, Алон Абутбул, Харольд Даймонд, Матти Сери, Джулиан Патрис
О фильме:
Ветеран вьетнамской войны Джон Рэмбо, уставший от своих военных и гражданских подвигов, поселяется в буддистском монастыре. Однако долго пребывать в мире ему не приходится. Захвачен в плен его бывший командир, и Рэмбо отправляется его спасать, вступая в отчаянную и неравную схватку с противником, а заодно разоблачая коррумпированных американских военных.

Выпущено: США
Студия: TriStar Pictures
Продолжительность: 01:41:44
Перевод: Профессиональный многоголосый закадровый + Оригинал
Файл
Кодек: x264
Качество: BDRip (источник: Blu-ray Disc)
Видео: 1920x816 (2,35:1), 23.976 fps, 10549 kbps
Аудио #1: AC-3, 2 ch, 320 kbps (Rus)
Аудио #2: AC-3, 2 ch, 320 kbps (Eng)
Субтитры: Русские, Английские
Скачать: семпл
Скриншоты

MI

Общее
Уникальный идентификатор : 188552840411500033067677796507506910685 (0x8DD9F4C5E775DE3CB9FF23B489BF25DD)
Полное имя : E:Рэмбо (Трилогия)Rambo.III.1988.BDRip.1080p.Rus.Eng.mkv
Формат : Matroska
Версия формата : Version 4 / Version 2
Размер файла : 7,95 Гбайт
Продолжительность : 1 ч. 41 м.
Общий поток : 11,2 Мбит/сек
Название фильма : Рэмбо 3 / Rambo III (1988)
Дата кодирования : UTC 2013-08-24 11:56:40
Программа кодирования : mkvmerge v6.3.0 ('You can't stop me!') built on Jun 28 2013 20:09:41
Библиотека кодирования : libebml v1.3.0 + libmatroska v1.4.0
Видео
Идентификатор : 1
Формат : AVC
Формат/Информация : Advanced Video Codec
Профиль формата : High@L4.1
Параметр CABAC формата : Да
Параметр ReFrames формата : 5 кадров
Идентификатор кодека : V_MPEG4/ISO/AVC
Продолжительность : 1 ч. 41 м.
Битрейт : 10,5 Мбит/сек
Ширина : 1920 пикселей
Высота : 816 пикселей
Соотношение сторон : 2,35:1
Режим частоты кадров : Постоянный
Частота кадров : 23,976 кадра/сек
Цветовое пространство : YUV
Субдискретизация насыщенности : 4:2:0
Битовая глубина : 8 бит
Тип развёртки : Прогрессивная
Бит/(Пиксели*Кадры) : 0.281
Размер потока : 7,33 Гбайт (92%)
Заголовок : Release by N1NT3NDO
Библиотека кодирования : x264 core 135 r2345 f0c1c53
Настройки программы : cabac=1 / ref=5 / deblock=1:-3:-3 / analyse=0x3:0x133 / me=umh / subme=11 / psy=1 / psy_rd=1.00:0.00 / mixed_ref=1 / me_range=32 / chroma_me=1 / trellis=2 / 8x8dct=1 / cqm=0 / deadzone=21,11 / fast_pskip=0 / chroma_qp_offset=-2 / threads=12 / lookahead_threads=1 / sliced_threads=0 / nr=0 / decimate=0 / interlaced=0 / bluray_compat=0 / constrained_intra=0 / bframes=6 / b_pyramid=2 / b_adapt=2 / b_bias=0 / direct=3 / weightb=1 / open_gop=0 / weightp=2 / keyint=240 / keyint_min=23 / scenecut=40 / intra_refresh=0 / rc=2pass / mbtree=0 / bitrate=10549 / ratetol=1.0 / qcomp=0.60 / qpmin=0 / qpmax=69 / qpstep=4 / cplxblur=20.0 / qblur=0.5 / ip_ratio=1.40 / pb_ratio=1.30 / aq=1:0.70
Язык : English
Default : Да
Forced : Нет
Аудио #1
Идентификатор : 2
Формат : AC-3
Формат/Информация : Audio Coding 3
Расширение режима : CM (complete main)
Параметр Endianness формата : Big
Идентификатор кодека : A_AC3
Продолжительность : 1 ч. 41 м.
Вид битрейта : Постоянный
Битрейт : 320 Кбит/сек
Каналы : 2 канала
Расположение каналов : Front: L R
Частота : 48,0 КГц
Битовая глубина : 16 бит
Метод сжатия : С потерями
Размер потока : 233 Мбайт (3%)
Заголовок : Rus
Язык : Russian
Default : Да
Forced : Нет
Аудио #2
Идентификатор : 3
Формат : AC-3
Формат/Информация : Audio Coding 3
Расширение режима : CM (complete main)
Параметр Endianness формата : Big
Идентификатор кодека : A_AC3
Продолжительность : 1 ч. 41 м.
Вид битрейта : Постоянный
Битрейт : 320 Кбит/сек
Каналы : 2 канала
Расположение каналов : Front: L R
Частота : 48,0 КГц
Битовая глубина : 16 бит
Метод сжатия : С потерями
Размер потока : 233 Мбайт (3%)
Заголовок : Eng
Язык : English
Default : Нет
Forced : Нет
Текст #1
Идентификатор : 4
Формат : UTF-8
Идентификатор кодека : S_TEXT/UTF8
Идентификатор кодека/Информация : UTF-8 Plain Text
Заголовок : Rus
Язык : Russian
Default : Нет
Forced : Нет
Текст #2
Идентификатор : 5
Формат : UTF-8
Идентификатор кодека : S_TEXT/UTF8
Идентификатор кодека/Информация : UTF-8 Plain Text
Заголовок : Eng
Язык : English
Default : Нет
Forced : Нет
Меню
00:00:00.000 : :Chapter 01
00:07:19.522 : :Chapter 02
00:14:30.870 : :Chapter 03
00:22:07.951 : :Chapter 04
00:27:56.216 : :Chapter 05
00:36:20.469 : :Chapter 06
00:42:00.017 : :Chapter 07
00:48:49.718 : :Chapter 08
00:55:52.682 : :Chapter 09
01:02:10.101 : :Chapter 10
01:09:55.274 : :Chapter 11
01:14:44.271 : :Chapter 12
01:19:48.658 : :Chapter 13
01:26:27.432 : :Chapter 14
01:33:52.752 : :Chapter 15
01:36:21.901 : :Chapter 16
[Профиль] [ЛС]
Показать сообщения:    

Текущее время: Сегодня 14:58

Часовой пояс: GMT



Вы не можете начинать темы
Вы не можете отвечать на сообщения
Вы не можете редактировать свои сообщения
Вы не можете удалять свои сообщения
Вы не можете голосовать в опросах
Вы не можете прикреплять файлы к сообщениям
Вы не можете скачивать файлы