Рэмбо: Первая кровь / First Blood (Тед Котчефф / Ted Kotcheff) [1982, США, боевик, триллер, драма, приключения, BDRip] MVO (НТВ)

 
Автор Сообщение

Russian Mafia ®

Пол:

Стаж: 1 год 8 месяцев

Сообщений: 4257



Награды: 10 (Подробнее)

Top Releaser 5 (Количество: 1) Top Releaser 3 (Количество: 1) Mega Seeder 5 (Количество: 1)
Торрент-статистика

Создавать темы 26-Авг-2015 14:03

[Цитировать]

Рэмбо: Первая кровь / First Blood
«A one man war»
- Страна: США
Жанр: боевик, триллер, драма, приключения
Год выпуска: 1982
Продолжительность: 01:33:16
Перевод: Профессиональный (многоголосый закадровый) НТВ
Cубтитры: нет
Оригинальная аудиодорожка: нет-Режиссер:
Тед Котчефф / Ted Kotcheff-В ролях:
Сильвестр Сталлоне (Rambo), Ричард Кренна (Trautman), Брайан Деннехи (Teasle), Билл МакКинни (Kern), Джек Старретт (Galt), Майкл Толбот (Balford), Крис Малки (Ward), Джон МакЛиам (Orval), Альф Хамфриз (Lester), Дэвид Карузо (Mitch).-Описание:
Он - эксперт. Эксперт по оружию, ножам и собственному телу. Он человек, специально обученный не замечать боль и погодные условия. Во Вьетнаме его задание было уничтожать вражеский личный состав... На войне он был героем, а на родине он никому не нужен. Не способный приспособиться к мирной жизни Рэмбо путешествует по стране, но его задерживает провинциальный шериф, ненавидящий бродяг. Попавший в тюрьму и вкусивший унижений со стороны полиции, Рэмбо объявляет войну беспределу официальных структур и главе местной полиции лично.-
MPAA: - Детям до 17 лет обязательно присутствие родителей-Качество видео: BDRip
Формат видео: AVI
Видео: 704x304 (2.32:1), 23.976 fps, XviD build 65 ~2035 kbps avg, 0.397 bit/pixel
Аудио: 48.0 kHz, AC3 Dolby Digital, 2/0 (L,R) ch, ~192.00 kbps avg | MVO
Размер: 1492.39 Mb (1/3 DVD-R)

MediaInfo

Общее
Полное имя : A:\Фильмы\First.Blood.1982.BDRip.XviD.1.46Gb.AC3.avi
Формат : AVI
Формат/Информация : Audio Video Interleave
Размер файла : 1,46 Гбайт
Продолжительность : 1 ч. 33 м.
Общий поток : 2237 Кбит/сек
Программа кодирования : VirtualDubMod 1.5.10.3 | www.virtualdub-fr.org || (build 2550/release)
Библиотека кодирования : VirtualDubMod build 2550/release
Видео
Идентификатор : 0
Формат : MPEG-4 Visual
Профиль формата : Advanced Simple@L5
Параметр BVOP формата : 1
Параметр QPel формата : Нет
Параметр GMC формата : Без точки перехода
Параметр матрицы формата : Выборочная
Идентификатор кодека : XVID
Идентификатор кодека/Подсказка : XviD
Продолжительность : 1 ч. 33 м.
Битрейт : 2035 Кбит/сек
Ширина : 704 пикселя
Высота : 304 пикселя
Соотношение сторон : 2.32:1
Частота кадров : 23,976 кадра/сек
Цветовое пространство : YUV
Субдискретизация насыщенности : 4:2:0
Битовая глубина : 8 бит
Тип развёртки : Прогрессивная
Метод сжатия : С потерями
Бит/(Пиксели*Кадры) : 0.397
Размер потока : 1,33 Гбайт (91%)
Библиотека кодирования : XviD 65
Аудио
Идентификатор : 1
Формат : AC-3
Формат/Информация : Audio Coding 3
Расширение режима : CM (complete main)
Параметр Endianness формата : Big
Идентификатор кодека : 2000
Продолжительность : 1 ч. 33 м.
Вид битрейта : Постоянный
Битрейт : 192 Кбит/сек
Каналы : 2 канала
Расположение каналов : Front: L R
Частота : 48,0 КГц
Битовая глубина : 16 бит
Метод сжатия : С потерями
Размер потока : 128 Мбайт (9%)
Выравнивание : Разделение по промежуткам
Продолжительность промежутка : 42 мс. (1,00 видеокадр)
Время предзагрузки промежутка : 500 мс.

Скриншоты

[Профиль] [ЛС]
Показать сообщения:    

Текущее время: Сегодня 17:39

Часовой пояс: GMT



Вы не можете начинать темы
Вы не можете отвечать на сообщения
Вы не можете редактировать свои сообщения
Вы не можете удалять свои сообщения
Вы не можете голосовать в опросах
Вы не можете прикреплять файлы к сообщениям
Вы не можете скачивать файлы