Рэмбо : Квадрология / Rambo : Quadrilogy (1982-2008) BDRip-AVC | 60 fps

 
Автор Сообщение

Russian Mafia ®

Пол:

Стаж: 1 год 8 месяцев

Сообщений: 4247



Награды: 10 (Подробнее)

За внесенный вклад в развитие сайта (Количество: 1) Mega Seeder 5 (Количество: 1) Top Releaser 4 (Количество: 1)
Торрент-статистика

Создавать темы 27-Сен-2015 10:28

[Цитировать]

Рэмбо: Первая кровь

-Название: Рэмбо: Первая кровь
Оригинальное название: First Blood
Год выпуска: 1982
Страна: США
Жанр: боевик, триллер
Продолжительность: 01:33:16
Перевод: Профессиональный многоголосый
Субтитры: русские (Полные), английские (Полные)-Режиссер: Тед Котчефф / Ted Kotcheff-В ролях: Сильвестр Сталлоне (Rambo), Ричард Кренна (Trautman), Брайан Деннехи (Teasle), Билл МакКинни (Kern), Джек Старретт (Galt), Майкл Тэлботт (Balford), Крис Малки (Ward), Джон МакЛиам (Orval), Альф Хамфриз (Lester), Дэвид Карузо (Mitch), Дэвид Л. Кроули (Shingleton), Дон Маккэй (Preston)-Описание:
Он - эксперт. Эксперт по оружию, ножам и собственному телу. Он человек, специально обученный не замечать боль и погодные условия.
Во Вьетнаме его задание было уничтожать вражеский личный состав. Много убивать. Истощать силы врага до полной победы. Рэмбо был лучший. На войне он был героем, а на родине, во имя которой проливалась кровь, он никому не нужен.
Не способный приспособиться к мирной жизни Рэмбо путешествует автостопом по городам Америки, встречаясь с однополчанами. Путешествие прекращает провинциальный шериф, ненавидящий бродяг.
Попавший в тюрьму по ложному обвинению, вкусивший унижений со стороны администрации, Рэмбо объявляет войну. Войну существующему отношению к ветеранам, беспределу официальных структур и главе местной полиции лично.
Совершив фантастический побег из тюрьмы, Джон начинает партизанскую войну в местных лесах. Очень скоро ситуация выходит из под контроля властей и в маленький город вводят части регулярной армии. Бывший боевой командир Джона Рэмбо смог дать лишь один комментарий: «Раз ты привел сюда так много людей, то приготовь побольше мешков для трупов».-Рейтинг

imdb.com: 7.70 (156 137)
MPAA: R - Лицам до 17 лет обязательно присутствие взрослого-Качество: BDRip-AVC 60fps
Формат: MKV
Видео кодек: AVC
Аудио кодек:AC3
Видео: AVC, 1024x432 (2.35:1), 4000 kbps, 59,940 fps, 0,151 bpp
Аудио: русский / AC3 / 5.1 / 48 kHz / 640 kbps / 16 bit |Многоголосый, закадровый Киномания|
Навигация по главам: есть- -

MI

General
Unique ID : 230705874950509859956723973745172554903 (0xAD9055D5A6F8F303A07AA746BD082497)
Format : Matroska
Format version : Version 4 / Version 2
File size : 3.02 GiB
Duration : 1h 33mn
Overall bit rate : 4 643 Kbps
Movie name : Tiberiumsun69
Encoded date : UTC 2015-07-29 14:47:44
Writing application : mkvmerge v7.9.0 ('Birds') 64bit
Writing library : libebml v1.3.1 + libmatroska v1.4.2
Attachment : Yes
Video
ID : 1
Format : AVC
Format/Info : Advanced Video Codec
Format profile : High@L4.1
Format settings, CABAC : Yes
Format settings, ReFrames : 4 frames
Codec ID : V_MPEG4/ISO/AVC
Duration : 1h 33mn
Bit rate : 4 000 Kbps
Width : 1 024 pixels
Height : 432 pixels
Display aspect ratio : 2.35:1
Frame rate : 59.940 fps
Color space : YUV
Chroma subsampling : 4:2:0
Bit depth : 8 bits
Scan type : Progressive
Bits/(Pixel*Frame) : 0.151
Stream size : 2.55 GiB (84%)
Title : Tiberiumsun69
Writing library : x264 core 146 r2538 121396c
Encoding settings : cabac=1 / ref=3 / deblock=1:0:0 / analyse=0x3:0x113 / me=umh / subme=9 / psy=1 / psy_rd=1.00:0.10 / mixed_ref=1 / me_range=32 / chroma_me=1 / trellis=2 / 8x8dct=1 / cqm=0 / deadzone=21,11 / fast_pskip=0 / chroma_qp_offset=-3 / threads=12 / lookahead_threads=3 / sliced_threads=0 / nr=0 / decimate=1 / interlaced=0 / bluray_compat=0 / constrained_intra=0 / bframes=16 / b_pyramid=2 / b_adapt=2 / b_bias=0 / direct=3 / weightb=1 / open_gop=0 / weightp=2 / keyint=600 / keyint_min=59 / scenecut=40 / intra_refresh=0 / rc_lookahead=40 / rc=2pass / mbtree=0 / bitrate=4000 / ratetol=1.0 / qcomp=0.60 / qpmin=0 / qpmax=69 / qpstep=4 / cplxblur=20.0 / qblur=0.5 / vbv_maxrate=50000 / vbv_bufsize=62500 / nal_hrd=none / filler=0 / ip_ratio=1.40 / pb_ratio=1.30 / aq=1:1.00
Language : English
Default : Yes
Forced : No
Audio
ID : 2
Format : AC-3
Format/Info : Audio Coding 3
Mode extension : CM (complete main)
Codec ID : A_AC3
Duration : 1h 33mn
Bit rate mode : Constant
Bit rate : 640 Kbps
Channel(s) : 6 channels
Channel positions : Front: L C R, Side: L R, LFE
Sampling rate : 48.0 KHz
Bit depth : 16 bits
Compression mode : Lossy
Delay relative to video : 1s 0ms
Stream size : 427 MiB (14%)
Title : Многоголосый, закадровый Киномания
Language : Russian
Default : Yes
Forced : No
Text #1
ID : 3
Format : UTF-8
Codec ID : S_TEXT/UTF8
Codec ID/Info : UTF-8 Plain Text
Title : Полные
Language : Russian
Default : No
Forced : No
Text #2
ID : 4
Format : UTF-8
Codec ID : S_TEXT/UTF8
Codec ID/Info : UTF-8 Plain Text
Title : Полные
Language : English
Default : No
Forced : No
Menu
00:00:00.000 : en:Chapter 1
00:05:00.000 : en:Chapter 2
00:10:00.000 : en:Chapter 3
00:15:00.000 : en:Chapter 4
00:20:00.000 : en:Chapter 5
00:25:00.000 : en:Chapter 6
00:30:00.000 : en:Chapter 7
00:35:00.000 : en:Chapter 8
00:40:00.000 : en:Chapter 9
00:45:00.000 : en:Chapter 10
00:50:00.000 : en:Chapter 11
00:55:00.000 : en:Chapter 12
01:00:00.000 : en:Chapter 13
01:05:00.000 : en:Chapter 14
01:10:00.000 : en:Chapter 15
01:15:00.000 : en:Chapter 16
01:20:00.000 : en:Chapter 17
01:25:00.000 : en:Chapter 18
01:30:00.000 : en:Chapter 19

Скриншоты

Рэмбо: Первая кровь 2

-Название: Рэмбо: Первая кровь 2
Оригинальное название: Rambo: First Blood Part II
Год выпуска: 1985
Страна: США
Жанр: боевик, триллер, приключения, военный
Продолжительность: 01:36:00
Перевод: Профессиональный многоголосый
Субтитры: русские (Полные), английские (Полные)-Режиссер: Джордж П. Косматос / George P. Cosmatos-В ролях: Сильвестр Сталлоне (Rambo), Ричард Кренна (Col. Samuel Trautman), Чарльз Нэпьер (Marshall Murdock), Стивен Беркофф (Lt. Col. Podovsky), Джулия Никсон-Соул (Co), Мартин Коув (Ericson), Джордж Чунг (Tay), Энди Вуд (Banks), Уильям Хент (Captain Vinh), Войо Горич (Sergeant Yushin), Дэна Ли (Captain Kinh), Баоан Коулмэн (Gunboat Captain)-Описание:
Джон Рэмбо отбывает наказание в тюрьме строгого режима. Он смирился со своей участью, но несмотря на свое положение, он продолжает чтить основные заповеди военного братства: верить напарнику, прикрывать его спину, отдать свою жизнь за него и свою страну.
Когда полковник Траутман, бывший боевой командир Рэмбо предлагает ему отправиться во Вьетнам, на спецоперацию по спасению оставшихся в плену американских солдат, он не раздумывая соглашается.-Рейтинг

imdb.com: 6.40 (105 434)
MPAA: R - Лицам до 17 лет обязательно присутствие взрослого-Качество: BDRip-AVC 60fps
Формат: MKV
Видео кодек: AVC
Аудио кодек:AC3
Видео: AVC, 1024x432 (2.35:1), 4000 kbps, 59,940 fps, 0,151 bpp
Аудио: русский / AC3 / 5.1 / 48 kHz / 640 kbps / 16 bit |Многоголосый, закдровый Киномания|
Навигация по главам: есть- -

MI

General
Unique ID : 219267534236978967152971204573540611172 (0xA4F56418B3403ACE933AB337BDDF7464)
Format : Matroska
Format version : Version 4 / Version 2
File size : 3.11 GiB
Duration : 1h 36mn
Overall bit rate : 4 643 Kbps
Movie name : Tiberiumsun69
Encoded date : UTC 2015-07-29 23:54:25
Writing application : mkvmerge v7.9.0 ('Birds') 64bit
Writing library : libebml v1.3.1 + libmatroska v1.4.2
Attachment : Yes
Video
ID : 1
Format : AVC
Format/Info : Advanced Video Codec
Format profile : High@L4.1
Format settings, CABAC : Yes
Format settings, ReFrames : 4 frames
Codec ID : V_MPEG4/ISO/AVC
Duration : 1h 36mn
Bit rate : 4 000 Kbps
Width : 1 024 pixels
Height : 432 pixels
Display aspect ratio : 2.35:1
Frame rate : 59.940 fps
Color space : YUV
Chroma subsampling : 4:2:0
Bit depth : 8 bits
Scan type : Progressive
Bits/(Pixel*Frame) : 0.151
Stream size : 2.62 GiB (84%)
Title : Tiberiumsun69
Writing library : x264 core 146 r2538 121396c
Encoding settings : cabac=1 / ref=3 / deblock=1:0:0 / analyse=0x3:0x113 / me=umh / subme=9 / psy=1 / psy_rd=1.00:0.10 / mixed_ref=1 / me_range=32 / chroma_me=1 / trellis=2 / 8x8dct=1 / cqm=0 / deadzone=21,11 / fast_pskip=0 / chroma_qp_offset=-3 / threads=12 / lookahead_threads=3 / sliced_threads=0 / nr=0 / decimate=1 / interlaced=0 / bluray_compat=0 / constrained_intra=0 / bframes=16 / b_pyramid=2 / b_adapt=2 / b_bias=0 / direct=3 / weightb=1 / open_gop=0 / weightp=2 / keyint=600 / keyint_min=59 / scenecut=40 / intra_refresh=0 / rc_lookahead=40 / rc=2pass / mbtree=0 / bitrate=4000 / ratetol=1.0 / qcomp=0.60 / qpmin=0 / qpmax=69 / qpstep=4 / cplxblur=20.0 / qblur=0.5 / vbv_maxrate=50000 / vbv_bufsize=62500 / nal_hrd=none / filler=0 / ip_ratio=1.40 / pb_ratio=1.30 / aq=1:1.00
Language : English
Default : Yes
Forced : No
Audio
ID : 2
Format : AC-3
Format/Info : Audio Coding 3
Mode extension : CM (complete main)
Codec ID : A_AC3
Duration : 1h 36mn
Bit rate mode : Constant
Bit rate : 640 Kbps
Channel(s) : 6 channels
Channel positions : Front: L C R, Side: L R, LFE
Sampling rate : 48.0 KHz
Bit depth : 16 bits
Compression mode : Lossy
Delay relative to video : 500ms
Stream size : 439 MiB (14%)
Title : Многоголосый, закадровый Киномания
Language : Russian
Default : Yes
Forced : No
Text #1
ID : 3
Format : UTF-8
Codec ID : S_TEXT/UTF8
Codec ID/Info : UTF-8 Plain Text
Title : Полные
Language : Russian
Default : No
Forced : No
Text #2
ID : 4
Format : UTF-8
Codec ID : S_TEXT/UTF8
Codec ID/Info : UTF-8 Plain Text
Title : Полные
Language : English
Default : No
Forced : No
Menu
00:00:00.000 : en:Chapter 1
00:05:00.000 : en:Chapter 2
00:10:00.000 : en:Chapter 3
00:15:00.000 : en:Chapter 4
00:20:00.000 : en:Chapter 5
00:25:00.000 : en:Chapter 6
00:30:00.000 : en:Chapter 7
00:35:00.000 : en:Chapter 8
00:40:00.000 : en:Chapter 9
00:45:00.000 : en:Chapter 10
00:50:00.000 : en:Chapter 11
00:55:00.000 : en:Chapter 12
01:00:00.000 : en:Chapter 13
01:05:00.000 : en:Chapter 14
01:10:00.000 : en:Chapter 15
01:15:00.000 : en:Chapter 16
01:20:00.000 : en:Chapter 17
01:25:00.000 : en:Chapter 18
01:30:00.000 : en:Chapter 19
01:35:00.000 : en:Chapter 20

Скриншоты

Рэмбо 3

-Название: Рэмбо 3
Оригинальное название: Rambo III
Год выпуска: 1988
Страна: США
Жанр: боевик, триллер, приключения, военный
Продолжительность: 01:41:44
Перевод: Профессиональный многоголосый
Субтитры: русские (Полные), английские (Полные)-Режиссер: Питер МакДональд / Peter MacDonald-В ролях: Сильвестр Сталлоне (Rambo), Ричард Кренна (Col. Samuel Trautman), Марк Де Йонге (Colonel Zaysen), Кертвуд Смит (Griggs), Спирос Фокас (Masoud), Сэссон Габаи (Mousa), Дуди Шоуа (Hamid), Рэнди Рэни (Kourov), Маркус Гилберт (Tomask), Алон Абутбул (Nissem), Махмуд Ассадоллахи (Rahim), Йосси Шиллоах (Khalid)-Описание:
Ветеран вьетнамской войны Джон Рэмбо, уставший от своих военных и гражданских подвигов, поселяется в буддистском монастыре. Однако долго пребывать в мире ему не приходится. Захвачен в плен его бывший командир, и Рэмбо отправляется его спасать, вступая в отчаянную и неравную схватку с противником.-Рейтинг

imdb.com: 5.70 (82 095)
MPAA: R - Лицам до 17 лет обязательно присутствие взрослого-Качество: BDRip-AVC 60fps
Формат: MKV
Видео кодек: AVC
Аудио кодек:AC3
Видео: AVC, 1024x432 (2.35:1), 4000 kbps, 59,940 fps, 0,151 bpp
Аудио: русский / AC3 / 5.1 / 48 kHz / 640 kbps / 16 bit |Многоголосый, закадровый Киномания|
Навигация по главам: есть- -

MI

General
Unique ID : 213165730726968477982436979793948073909 (0xA05E39F4DA9F89F8861218A1D2045FB5)
Format : Matroska
Format version : Version 4 / Version 2
File size : 3.30 GiB
Duration : 1h 41mn
Overall bit rate : 4 644 Kbps
Movie name : Tiberiumsun69
Encoded date : UTC 2015-07-30 00:01:38
Writing application : mkvmerge v7.9.0 ('Birds') 64bit
Writing library : libebml v1.3.1 + libmatroska v1.4.2
Attachment : Yes
Video
ID : 1
Format : AVC
Format/Info : Advanced Video Codec
Format profile : High@L4.1
Format settings, CABAC : Yes
Format settings, ReFrames : 4 frames
Codec ID : V_MPEG4/ISO/AVC
Duration : 1h 41mn
Bit rate : 4 000 Kbps
Width : 1 024 pixels
Height : 432 pixels
Display aspect ratio : 2.35:1
Frame rate : 59.940 fps
Color space : YUV
Chroma subsampling : 4:2:0
Bit depth : 8 bits
Scan type : Progressive
Bits/(Pixel*Frame) : 0.151
Stream size : 2.78 GiB (84%)
Title : Tiberiumsun69
Writing library : x264 core 146 r2538 121396c
Encoding settings : cabac=1 / ref=3 / deblock=1:0:0 / analyse=0x3:0x113 / me=umh / subme=9 / psy=1 / psy_rd=1.00:0.10 / mixed_ref=1 / me_range=32 / chroma_me=1 / trellis=2 / 8x8dct=1 / cqm=0 / deadzone=21,11 / fast_pskip=0 / chroma_qp_offset=-3 / threads=12 / lookahead_threads=3 / sliced_threads=0 / nr=0 / decimate=1 / interlaced=0 / bluray_compat=0 / constrained_intra=0 / bframes=16 / b_pyramid=2 / b_adapt=2 / b_bias=0 / direct=3 / weightb=1 / open_gop=0 / weightp=2 / keyint=600 / keyint_min=59 / scenecut=40 / intra_refresh=0 / rc_lookahead=40 / rc=2pass / mbtree=0 / bitrate=4000 / ratetol=1.0 / qcomp=0.60 / qpmin=0 / qpmax=69 / qpstep=4 / cplxblur=20.0 / qblur=0.5 / vbv_maxrate=50000 / vbv_bufsize=62500 / nal_hrd=none / filler=0 / ip_ratio=1.40 / pb_ratio=1.30 / aq=1:1.00
Language : English
Default : Yes
Forced : No
Audio
ID : 2
Format : AC-3
Format/Info : Audio Coding 3
Mode extension : CM (complete main)
Codec ID : A_AC3
Duration : 1h 41mn
Bit rate mode : Constant
Bit rate : 640 Kbps
Channel(s) : 6 channels
Channel positions : Front: L C R, Side: L R, LFE
Sampling rate : 48.0 KHz
Bit depth : 16 bits
Compression mode : Lossy
Delay relative to video : 8ms
Stream size : 466 MiB (14%)
Title : Многоголосый, закадровый Киномания
Language : Russian
Default : Yes
Forced : No
Text #1
ID : 3
Format : UTF-8
Codec ID : S_TEXT/UTF8
Codec ID/Info : UTF-8 Plain Text
Title : Полные
Language : Russian
Default : No
Forced : No
Text #2
ID : 4
Format : UTF-8
Codec ID : S_TEXT/UTF8
Codec ID/Info : UTF-8 Plain Text
Title : Полные
Language : English
Default : No
Forced : No
Menu
00:00:00.000 : en:Chapter 1
00:05:00.000 : en:Chapter 2
00:10:00.000 : en:Chapter 3
00:15:00.000 : en:Chapter 4
00:20:00.000 : en:Chapter 5
00:25:00.000 : en:Chapter 6
00:30:00.000 : en:Chapter 7
00:35:00.000 : en:Chapter 8
00:40:00.000 : en:Chapter 9
00:45:00.000 : en:Chapter 10
00:50:00.000 : en:Chapter 11
00:55:00.000 : en:Chapter 12
01:00:00.000 : en:Chapter 13
01:05:00.000 : en:Chapter 14
01:10:00.000 : en:Chapter 15
01:15:00.000 : en:Chapter 16
01:20:00.000 : en:Chapter 17
01:25:00.000 : en:Chapter 18
01:30:00.000 : en:Chapter 19
01:35:00.000 : en:Chapter 20
01:40:00.000 : en:Chapter 21

Скриншоты

Рэмбо IV

-Название: Рэмбо IV
Оригинальное название: Rambo
Год выпуска: 2007
Страна: Германия, США
Жанр: боевик, триллер, военный
Продолжительность: 01:31:32
Перевод: Дубляж
Субтитры: русские (Форсированные), русские (Полные), английские (Полные)-Режиссер: Сильвестр Сталлоне / Sylvester Stallone-В ролях: Сильвестр Сталлоне (John Rambo), Джули Бенц (Sarah), Мэттью Мэрсден (School Boy), Грэм МакТавиш (Lewis), Рейнальдо Гальегос (Diaz), Джэйк Ла Ботц (Reese), Тим Кенг (En-Joo), Манг Манг Хим (Tint), Пол Шульц (Michael Burnett), Камерон Пирсон (Missionary #4 (Jeff)), Томас Петерсон (Missionary #2 (Dentist)), Тони Скарберг (Missionary #3 (Videographer))-Описание:
Вьетнамский ветеран Джон Рэмбо ведет уединенный образ жизни на окраине Бангкока. Уставший от борьбы и кровопролития, скрываясь от проблем, он селится в небольшом доме у реки и проводит дни, ремонтируя старые лодки и катера. Однако судьба вновь заставляет его взяться за оружие. Собрав отряд из пяти наемников, Рэмбо встает на защиту жителей тайской деревни и американских миссионеров, которых захватили в заложники бирманские боевики.-Рейтинг

imdb.com: 7.10 (163 631)
MPAA: R - Лицам до 17 лет обязательно присутствие взрослого-Качество: BDRip-AVC 60fps
Формат: MKV
Видео кодек: AVC
Аудио кодек:AC3
Видео: AVC, 1024x424 (2.40:1), 4000 kbps, 59,940 fps, 0,154 bpp
Аудио: русский / AC3 / 5.1 / 48 kHz / 640 kbps / 16 bit |Дубляж|
Навигация по главам: есть- -

MI

General
Unique ID : 208775766631768424036270645970821067791 (0x9D10C0040DB62911B561A24431BE340F)
Format : Matroska
Format version : Version 4 / Version 2
File size : 2.97 GiB
Duration : 1h 31mn
Overall bit rate : 4 641 Kbps
Movie name : Tiberiumsun69
Encoded date : UTC 2015-07-30 10:55:45
Writing application : mkvmerge v7.9.0 ('Birds') 64bit
Writing library : libebml v1.3.1 + libmatroska v1.4.2
Attachment : Yes
Video
ID : 1
Format : AVC
Format/Info : Advanced Video Codec
Format profile : High@L4.1
Format settings, CABAC : Yes
Format settings, ReFrames : 4 frames
Codec ID : V_MPEG4/ISO/AVC
Duration : 1h 31mn
Bit rate : 4 000 Kbps
Width : 1 024 pixels
Height : 424 pixels
Display aspect ratio : 2.40:1
Frame rate : 59.940 fps
Color space : YUV
Chroma subsampling : 4:2:0
Bit depth : 8 bits
Scan type : Progressive
Bits/(Pixel*Frame) : 0.154
Stream size : 2.50 GiB (84%)
Title : Tiberiumsun69
Writing library : x264 core 146 r2538 121396c
Encoding settings : cabac=1 / ref=3 / deblock=1:0:0 / analyse=0x3:0x113 / me=umh / subme=9 / psy=1 / psy_rd=1.00:0.10 / mixed_ref=1 / me_range=32 / chroma_me=1 / trellis=2 / 8x8dct=1 / cqm=0 / deadzone=21,11 / fast_pskip=0 / chroma_qp_offset=-3 / threads=12 / lookahead_threads=3 / sliced_threads=0 / nr=0 / decimate=1 / interlaced=0 / bluray_compat=0 / constrained_intra=0 / bframes=16 / b_pyramid=2 / b_adapt=2 / b_bias=0 / direct=3 / weightb=1 / open_gop=0 / weightp=2 / keyint=600 / keyint_min=59 / scenecut=40 / intra_refresh=0 / rc_lookahead=40 / rc=2pass / mbtree=0 / bitrate=4000 / ratetol=1.0 / qcomp=0.60 / qpmin=0 / qpmax=69 / qpstep=4 / cplxblur=20.0 / qblur=0.5 / vbv_maxrate=50000 / vbv_bufsize=62500 / nal_hrd=none / filler=0 / ip_ratio=1.40 / pb_ratio=1.30 / aq=1:1.00
Language : English
Default : Yes
Forced : No
Audio
ID : 2
Format : AC-3
Format/Info : Audio Coding 3
Mode extension : CM (complete main)
Codec ID : A_AC3
Duration : 1h 31mn
Bit rate mode : Constant
Bit rate : 640 Kbps
Channel(s) : 6 channels
Channel positions : Front: L C R, Side: L R, LFE
Sampling rate : 48.0 KHz
Bit depth : 16 bits
Compression mode : Lossy
Stream size : 419 MiB (14%)
Title : Дубляж
Language : Russian
Default : Yes
Forced : No
Text #1
ID : 3
Format : UTF-8
Codec ID : S_TEXT/UTF8
Codec ID/Info : UTF-8 Plain Text
Title : Форсированные
Language : Russian
Default : Yes
Forced : No
Text #2
ID : 4
Format : UTF-8
Codec ID : S_TEXT/UTF8
Codec ID/Info : UTF-8 Plain Text
Title : Полные
Language : Russian
Default : No
Forced : No
Text #3
ID : 5
Format : UTF-8
Codec ID : S_TEXT/UTF8
Codec ID/Info : UTF-8 Plain Text
Title : Полные
Language : English
Default : No
Forced : No
Menu
00:00:00.000 : :Chapter 01
00:06:51.369 : :Chapter 02
00:10:33.549 : :Chapter 03
00:16:27.653 : :Chapter 04
00:22:25.343 : :Chapter 05
00:26:16.658 : :Chapter 06
00:33:54.282 : :Chapter 07
00:40:30.219 : :Chapter 08
00:46:11.393 : :Chapter 09
00:53:05.974 : :Chapter 10
00:57:23.147 : :Chapter 11
01:01:24.138 : :Chapter 12
01:06:11.842 : :Chapter 13
01:11:27.699 : :Chapter 14
01:17:04.244 : :Chapter 15
01:19:31.766 : :Chapter 16

Скриншоты

[Профиль] [ЛС]
Показать сообщения:    

Текущее время: Сегодня 08:31

Часовой пояс: GMT



Вы не можете начинать темы
Вы не можете отвечать на сообщения
Вы не можете редактировать свои сообщения
Вы не можете удалять свои сообщения
Вы не можете голосовать в опросах
Вы не можете прикреплять файлы к сообщениям
Вы не можете скачивать файлы