Рэкетир (Акан Сатаев) [2007, Казахстан, криминал, драма, BDRip 720p]

 
Автор Сообщение

Russian Mafia ®

Пол:

Стаж: 1 год 8 месяцев

Сообщений: 4257



Награды: 10 (Подробнее)

Top Releaser 5 (Количество: 1) Mega Seeder 1 (Количество: 1) Top Releaser 4 (Количество: 1)
Торрент-статистика

Создавать темы 28-Мар-2016 13:13

[Цитировать]

-Рэкетир
Racketeer--
Год выпуска: 2007
Производство: SataiFilm
Страна: Казахстан
Слоган: «За всё придётся платить»
Жанр: Криминальная драма
Продолжительность: 01:20:16
Перевод: Изначально русский с казахским (переведено хардсабом)
Субтитры: нет
Режиссер: Акан Сатаев
Сценарий: Тимур Жаксылыков
Продюсер: Акан Сатаев
Оператор: Хасанбек Кыдыралиев
Композитор: Андрей Лифинский
В ролях: Саят Исембаев, Владимир Вдовиченков, Жан Байжанбаев, Толепберген Байсакалов, Ментай Утепбергенов, Мурат Бисембин, Алмагуль Рулас, Сакен Аминов
Описание: Это биографическая история о жизни молодого человека по имени Саян, рассказанная им самим.
Когда-то, в начале девяностых он — парень, который родился и вырос в Алма-Ате, подающий большие надежды боксёр, решил, что дорогу в жизнь можно пробить своими кулаками. И вроде все складывалось для него неплохо, даже очень… Но наступает момент, когда он начинает понимать, что назад уже дороги нет, что за всё в жизни оказывается надо платить. Какой ценой — он узнает позже.
-
Рейтинг

Бюджет: $ 800000
Дополнительная информация
До этого был сцен рип, перезалил на рип с лучшими характеристиками.--Качество: BDRip (nmd)
Формат: Matroska
Видео: x264 core 107, 1280x544 (2,35:1), 6 252 Kbps at 23.976 fps
Аудио: Русский: 48 kHz, DTS, 3/2 (L,C,R,l,r) + LFE ch, ~1536.00 kbps avg--

Знаете ли вы, что

* Все появляющиеся на экране бренды проверялись съемочной группой на предмет года их появления на рынке Казахстана.
* Малиново-красный Pontiac Firebird, из которого выходит начинающий «бизнесмен-одиночка», не ездит. На съемки его привезли на эвакуаторе.
* Серебристый Mercedes-Benz в кузове W140 был предоставлен другом режиссёра. Киношники уже потом заметили тюнинговые «жабры» на передних крыльях и компьютером затерли их на экране для пущей исторической достоверности.
* Белый Lexus LX470, который стал последним автомобилем главного героя, принадлежит лично самому режиссеру.
* На всех автомобилях, которые так или иначе были задействованы в фильме, не менялись номера.
* Изначально планировалось, что свое полугодовое укрытие, главный герой найдет не в Кустанае, а в городе Фрунзе (ныне Бишкек, Киргизия).
* В моментах, где показаны события 2003 года можно увидеть телефон Motorola RAZR V3, производство которого началось лишь в 2005 году.
-

MediaInfo

General
Complete name : T:\Рэкетир.2007.BDRip.720p.-nevermnd.mkv
Format : Matroska
File size : 4.35 GiB
Duration : 1h 20mn
Overall bit rate : 7 760 Kbps
Movie name : -=nevermnd=-
Encoded date : UTC 2010-11-03 09:02:58
Writing application : mkvmerge v4.3.0 ('Escape from the Island') сборка от Sep 5 2010 10:30:51
Writing library : libebml v1.0.0 + libmatroska v1.0.0
Video
ID : 1
Format : AVC
Format/Info : Advanced Video Codec
Format profile : High@L4.1
Format settings, CABAC : Yes
Format settings, ReFrames : 4 frames
Muxing mode : Container profile=Unknown@4.1
Codec ID : V_MPEG4/ISO/AVC
Duration : 1h 20mn
Bit rate : 6 252 Kbps
Width : 1 280 pixels
Height : 544 pixels
Display aspect ratio : 2.35:1
Frame rate : 23.976 fps
Color space : YUV
Chroma subsampling : 4:2:0
Bit depth : 8 bits
Scan type : Progressive
Bits/(Pixel*Frame) : 0.374
Stream size : 3.42 GiB (79%)
Writing library : x264 core 107 r1745 4785e8e
Encoding settings : cabac=1 / ref=4 / deblock=1:-2:-1 / analyse=0x3:0x113 / me=umh / subme=9 / psy=1 / psy_rd=1.00:0.20 / mixed_ref=1 / me_range=32 / chroma_me=1 / trellis=2 / 8x8dct=1 / cqm=0 / deadzone=21,11 / fast_pskip=0 / chroma_qp_offset=-3 / threads=3 / sliced_threads=0 / nr=0 / decimate=0 / interlaced=0 / constrained_intra=0 / bframes=3 / b_pyramid=2 / b_adapt=2 / b_bias=0 / direct=3 / weightb=1 / open_gop=0 / weightp=2 / keyint=250 / keyint_min=23 / scenecut=40 / intra_refresh=0 / rc_lookahead=40 / rc=2pass / mbtree=1 / bitrate=6252 / ratetol=1.0 / qcomp=0.60 / qpmin=10 / qpmax=51 / qpstep=4 / cplxblur=20.0 / qblur=0.5 / vbv_maxrate=50000 / vbv_bufsize=50000 / ip_ratio=1.40 / aq=1:1.00 / nal_hrd=none
Language : Russian
Audio
ID : 2
Format : DTS
Format/Info : Digital Theater Systems
Muxing mode : Header stripping
Codec ID : A_DTS
Duration : 1h 20mn
Bit rate mode : Constant
Bit rate : 1 510 Kbps
Channel(s) : 6 channels
Channel positions : Front: L C R, Side: L R, LFE
Sampling rate : 48.0 KHz
Bit depth : 24 bits
Stream size : 867 MiB (19%)
Title : DTS 5.1 1536 kbps
Language : Russian
- -

Скриншоты


--
[Профиль] [ЛС]
Показать сообщения:    

Текущее время: Сегодня 18:30

Часовой пояс: GMT



Вы не можете начинать темы
Вы не можете отвечать на сообщения
Вы не можете редактировать свои сообщения
Вы не можете удалять свои сообщения
Вы не можете голосовать в опросах
Вы не можете прикреплять файлы к сообщениям
Вы не можете скачивать файлы