Рэкетир (Акан Сатаев / Akhan Satayev) [2007, Казахстан, Боевик, драма, криминал, BDRip-AVC]

 
Автор Сообщение

TorrentFilm ®

Пол:

Стаж: 2 года

Сообщений: 7741



Награды: Нет

Торрент-статистика

Создавать темы 31-Июл-2015 00:07

[Цитировать]

Рэкетир
«За всё придётся платить»
- Год выпуска: 2007
Выпущено: Казахстан / Sataifilm
Жанр: боевик, драма, криминал
Продолжительность: 01:20:16
Перевод: Не требуется
Cубтитры: Английские
Навигация по главам: Есть (14 глав)-Режиссер:
Акан Сатаев / Akhan Satayev-В ролях:
Саят Исембаев, Владимир Вдовиченков, Жан Байжанбаев, Толепберген Байсакалов, Ментай Утепбергенов, Мурат Бисенбин, Алмагуль Рулас, Сакен Аминов, Болат Калымбетов, Асель Сагатова-Описание:
Это биографическая история о жизни молодого человека по имени Саян, рассказанная им самим.
Когда-то, в начале девяностых он — парень, который родился и вырос в Алма-Ате, подающий большие надежды боксёр, решил, что дорогу в жизнь можно пробить своими кулаками. И вроде все складывалось для него неплохо, даже очень… Но наступает момент, когда он начинает понимать, что назад уже дороги нет, что за всё в жизни оказывается надо платить. Какой ценой — он узнает позже.-КиноПоиск | Сэмпл |-Тип релиза: BDRip-AVC [Blu-ray Disc]
Контейнер: MKV
Видео: 1072x456 (2.35:1), 23.976 fps, x264 ~2140 kbps avg
Аудио: 48 kHz, AC3 Dolby Digital, 3/2 (L,C,R,l,r) + LFE ch, ~448.00 kbps
-

Скриншоты

MediaInfo

General
Complete name                            : D:\Reketir_2007_BDRip-AVC_by_Dalemake.mkv
Format                                   : Matroska
Format version                           : Version 4 / Version 2
File size                                : 1.45 GiB
Duration                                 : 1h 20mn
Overall bit rate                         : 2 587 Kbps
Encoded date                             : UTC 2015-07-29 15:00:53
Writing application                      : mkvmerge v6.1.0 ('Old Devil') built on Mar  4 2013 09:10:42
Writing library                          : libebml v1.3.0 + libmatroska v1.4.0
Video
ID                                       : 1
Format                                   : AVC
Format/Info                              : Advanced Video Codec
Format profile                           : High@L4.1
Format settings, CABAC                   : Yes
Format settings, ReFrames                : 11 frames
Codec ID                                 : V_MPEG4/ISO/AVC
Duration                                 : 1h 20mn
Bit rate                                 : 2 140 Kbps
Width                                    : 1 072 pixels
Height                                   : 456 pixels
Display aspect ratio                     : 2.35:1
Frame rate mode                          : Constant
Frame rate                               : 23.976 fps
Color space                              : YUV
Chroma subsampling                       : 4:2:0
Bit depth                                : 8 bits
Scan type                                : Progressive
Bits/(Pixel*Frame)                       : 0.183
Stream size                              : 1.17 GiB (81%)
Writing library                          : x264 core 130 r2273 b3065e6
Encoding settings                        : cabac=1 / ref=11 / deblock=1:-1:-1 / analyse=0x3:0x113 / me=umh / subme=11 / psy=1 / psy_rd=1.00:0.00 / mixed_ref=1 / me_range=32 / chroma_me=0 / trellis=2 / 8x8dct=1 / cqm=0 / deadzone=21,11 / fast_pskip=0 / chroma_qp_offset=-2 / threads=6 / lookahead_threads=1 / sliced_threads=0 / nr=0 / decimate=0 / interlaced=0 / bluray_compat=0 / constrained_intra=0 / bframes=15 / b_pyramid=2 / b_adapt=2 / b_bias=0 / direct=3 / weightb=1 / open_gop=0 / weightp=2 / keyint=250 / keyint_min=23 / scenecut=40 / intra_refresh=0 / rc_lookahead=60 / rc=2pass / mbtree=1 / bitrate=2140 / ratetol=1.0 / qcomp=0.60 / qpmin=0 / qpmax=69 / qpstep=4 / cplxblur=20.0 / qblur=0.5 / vbv_maxrate=62500 / vbv_bufsize=50000 / nal_hrd=none / ip_ratio=1.40 / aq=1:0.80
Default                                  : Yes
Forced                                   : No
Audio
ID                                       : 2
Format                                   : AC-3
Format/Info                              : Audio Coding 3
Mode extension                           : CM (complete main)
Format settings, Endianness              : Big
Codec ID                                 : A_AC3
Duration                                 : 1h 20mn
Bit rate mode                            : Constant
Bit rate                                 : 448 Kbps
Channel(s)                               : 6 channels
Channel positions                        : Front: L C R, Side: L R, LFE
Sampling rate                            : 48.0 KHz
Bit depth                                : 16 bits
Compression mode                         : Lossy
Stream size                              : 257 MiB (17%)
Default                                  : Yes
Forced                                   : No
Text
ID                                       : 3
Format                                   : UTF-8
Codec ID                                 : S_TEXT/UTF8
Codec ID/Info                            : UTF-8 Plain Text
Default                                  : Yes
Forced                                   : No
Menu
00:00:00.000                             : :Chapter 01
00:01:41.351                             : :Chapter 02
00:09:11.926                             : :Chapter 03
00:15:50.366                             : :Chapter 04
00:21:19.486                             : :Chapter 05
00:28:26.996                             : :Chapter 06
00:35:20.368                             : :Chapter 07
00:39:12.767                             : :Chapter 08
00:44:23.243                             : :Chapter 09
00:50:58.180                             : :Chapter 10
00:55:38.793                             : :Chapter 11
01:01:59.757                             : :Chapter 12
01:08:08.834                             : :Chapter 13
01:15:39.076                             : :Chapter 14

x264 log

x264 [info]: frame I:835   Avg QP:18.31  size: 71488
x264 [info]: frame P:21614 Avg QP:21.66  size: 22669
x264 [info]: frame B:93023 Avg QP:24.24  size:  7921
x264 [info]: consecutive B-frames:  1.7%  2.2%  5.1% 10.8% 11.3% 41.7%  9.4%  1.8%  5.3%  1.3%  3.1%  2.7%  1.9%  0.3%  1.0%  0.5%
x264 [info]: mb I  I16..4:  8.7% 76.7% 14.6%
x264 [info]: mb P  I16..4:  1.2%  8.8%  1.1%  P16..4: 35.0% 36.6% 10.0%  0.0%  0.0%    skip: 7.3%
x264 [info]: mb B  I16..4:  0.2%  1.0%  0.1%  B16..8: 38.2% 16.2%  2.5%  direct: 4.8%  skip:37.0%  L0:47.3% L1:46.3% BI: 6.4%
x264 [info]: 8x8 transform intra:79.0% inter:64.2%
x264 [info]: direct mvs  spatial:98.4% temporal:1.6%
x264 [info]: coded y,uvDC,uvAC intra: 83.0% 72.8% 45.4% inter: 27.1% 21.1% 6.1%
x264 [info]: i16 v,h,dc,p: 50% 16%  6% 28%
x264 [info]: i8 v,h,dc,ddl,ddr,vr,hd,vl,hu: 10%  6%  5% 11% 16% 15% 14% 11% 12%
x264 [info]: i4 v,h,dc,ddl,ddr,vr,hd,vl,hu: 12%  8%  6%  8% 15% 14% 14% 11% 12%
x264 [info]: i8c dc,h,v,p: 37% 27% 19% 18%
x264 [info]: Weighted P-Frames: Y:4.8% UV:1.9%
x264 [info]: ref P L0: 41.4%  9.5% 19.4%  6.8%  6.5%  4.0%  4.3%  2.1%  2.3%  1.6%  1.9%  0.2%  0.0%
x264 [info]: ref B L0: 63.7% 14.3%  7.6%  4.3%  3.2%  2.5%  1.9%  1.4%  0.8%  0.3%
x264 [info]: ref B L1: 90.5%  9.5%
-
[Профиль] [ЛС]

Создавать темы 06-Авг-2015 22:23 (спустя 6 дней)

Топик был перенесен из форума Фильмы до 2014 года в форум Фильмы до 2012 года
sergej644
 
Показать сообщения:    

Текущее время: Сегодня 02:26

Часовой пояс: GMT



Вы не можете начинать темы
Вы не можете отвечать на сообщения
Вы не можете редактировать свои сообщения
Вы не можете удалять свои сообщения
Вы не можете голосовать в опросах
Вы не можете прикреплять файлы к сообщениям
Вы не можете скачивать файлы