Рэй / Ray (Taylor Hackford / Тейлор Хэкфорд) [2004 г., Драма, Музыкальный, BDRip] [R.G.ReverseFile]

 
Автор Сообщение

sergej644 ®

Пол:

Стаж: 4 года 11 месяцев

Сообщений: 6045

Откуда: Soviet Union



Награды: Нет

Торрент-статистика

Создавать темы 07-Окт-2014 12:05

[Цитировать]

--Рэй / Ray

Год выпуска: 2004
Страна: USA
Жанр: Драма, Музыкальный
Продолжительность: 02:32:34
Перевод: Профессиональный (полное дублирование)
Режиссер: Taylor Hackford / Тейлор Хэкфорд
В ролях: Джейми Фокс,Керри Вашингтон,Реджина Кинг,Клифтон Пауэлл,Гарри Дж. Ленникс,Букем Вудбайн,Онжаню Эллис,Шаррон Уоррен,С.Дж. Сандерс,Кертис Армстронг-
Описание: Биографическая драма легендарного композитора и певца Рэя Чарлза, человека, совершившего революцию в музыке. Ослепший в возрасте семи лет после того, как стал свидетелем трагической гибели младшего брата, Рэй всегда вдохновлялся настойчивыми требованиями матери, чтобы он нашел свой путь в жизни. Путеводной нитью стало фортепиано, с помощью которого слепой музыкант заставил людей по-другому взглянуть на мир звуков…
-
Бюджет: $40 000 000
Сборы в США: $75 331 600
Сборы в мире: $123 971 376
Премьера (Мир): 12 сентября 2004 год
Премьера (РФ): 27 января 2005 год

Качество: BDRip
Формат: MKV
Видео кодек: AVC
Аудио кодек: AC3
Видео: AVC, 1920 x 1080, 16:9, 23,976 кадра/с, 0,197 bit,pic
Аудио: AC3, 320kbps, 6 ch (Front: L C R, Side: L R, LFE), 16 bit
-

MediaInfo

Общее
Полное имя                       : F:\torrent files\Ray.2004.1080p[ReverseFile.org].mkv
Формат                           : Matroska
Версия формата                   : Version 1
Размер файла                     : 11,0 Гбайт
Продолжительность                : 2 ч. 32 м.
Режим общего битрейта            : Переменный
Общий поток                      : 10,3 Мбит/сек
Дата кодирования                 : UTC 2013-01-27 02:17:03
Библиотека кодирования           : WonderShare Matroska Muxer
Видео
Идентификатор                    : 1
Формат                           : AVC
Формат/Информация                : Advanced Video Codec
Профиль формата                  : Baseline@L4.2
Параметр CABAC формата           : Нет
Параметр ReFrames формата        : 1 кадр
Параметр GOP формата             : M=1, N=25
Идентификатор кодека             : V_MPEG4/ISO/AVC
Продолжительность                : 2 ч. 32 м.
Вид битрейта                     : Переменный
Битрейт                          : 9787 Кбит/сек
Максимальный битрейт             : 15,0 Мбит/сек
Ширина                           : 1920 пикселей
Высота                           : 1080 пикселей
Соотношение сторон               : 16:9
Частота кадров                   : 23,976 кадра/сек
Цветовое пространство            : YUV
Субдискретизация насыщенности    : 4:2:0
Битовая глубина                  : 8 бит
Тип развёртки                    : Прогрессивная
Бит/(Пиксели*Кадры)              : 0.197
Размер потока                    : 10,4 Гбайт (95%)
Аудио
Идентификатор                    : 2
Формат                           : AC-3
Формат/Информация                : Audio Coding 3
Расширение режима                : CM (complete main)
Идентификатор кодека             : A_AC3
Продолжительность                : 2 ч. 32 м.
Вид битрейта                     : Постоянный
Битрейт                          : 320 Кбит/сек
Каналы                           : 6 каналов
Расположение каналов             : Front: L C R, Side: L R, LFE
Частота                          : 48,0 КГц
Битовая глубина                  : 16 бит
Метод сжатия                     : С потерями
Задержка видео                   : -42 мс.
Размер потока                    : 349 Мбайт (3%)
-

Скриншоты

--релиз группы Reversefile
[Профиль] [ЛС]
Показать сообщения:    

Текущее время: Сегодня 09:59

Часовой пояс: GMT



Вы не можете начинать темы
Вы не можете отвечать на сообщения
Вы не можете редактировать свои сообщения
Вы не можете удалять свои сообщения
Вы не можете голосовать в опросах
Вы не можете прикреплять файлы к сообщениям
Вы не можете скачивать файлы