Рэй Донован / Ray Donovan [S01-03] (2013-2015) HDTVRip | КПК | NewStudio

 
Автор Сообщение

достали все ®

Пол:

Стаж: 1 год 8 месяцев

Сообщений: 6545



Награды: 12 (Подробнее)

Mega Seeder 1 (Количество: 1) Top Releaser 4 (Количество: 1) Top Releaser 3 (Количество: 1)
Торрент-статистика

Создавать темы 09-Авг-2016 11:06

[Цитировать]

Информация о фильме
Название: Рэй Донован
Оригинальное название: Ray Donovan
Год выхода: 2013-1015
Жанр: Драма, Криминал
Режиссеры: Аллен Култер, Такер Гейтс, Майкл Аппендаль, Дэниэл Эттиэс
В ролях: Лив Шрайбер, Паула Малкомсон, Кэтрин Монниг, Пуч Холл, Кэррис Дорси, Девон Бэгби, Джон Войт, Стивен Бауэр, Уильям Стэнфорд Дэвис, Майкл МакГрэйди, Фрэнк Уэйли, Эллиотт Гулд, Октавиус Дж. Джонсон, Эмбир Чилдерс, Хезер МакКомб
О фильме:
Сериал расскажет о Рэе Доноване, профессиональном "разруливателе проблем", которого вызывают, когда у кого-то из "богатых и знаменитых" жителей Лос-Анджелеса возникают сложности.

Страна: США
Студия: The Mark Gordon Company
Продолжительность: 36 x ~ 00:55:00
Перевод: ППрофессиональный (многоголосый, закадровый) [NewStudio]
Файл
Формат: MP4
Качество: HDTVRip | КПК
Видео: MPEG-4 AVC (x264), 640x360, ~500 kbps, 23.976 fps
Аудио: AAC LC, 48.0 KHz, 2 ch, 128 Kbps
Субтитры: Нет
HDTVRip - Видеоряд чистый, без рекламы и логотипа телеканала.
Семпл

Скриншоты

MI

Complete name : E:KinoRei.Donovan.AVC.KPK.GFRei.Donovan.S01.2013.AVC.HDTVRip.KPK.NS.GFRei.Donovan.s01e03.2013.AVC.HDTVRip.KPK.NS.GF.mp4
Format : MPEG-4
Codec ID : M4V (isom/iso2/avc1)
File size : 251 MiB
Duration : 55mn 26s
Overall bit rate mode : Variable
Overall bit rate : 634 Kbps
Writing application : Lavf53.19.0
Video
ID : 1
Format : AVC
Format/Info : Advanced Video Codec
Format profile : High@L4.1
Format settings, CABAC : Yes
Format settings, ReFrames : 8 frames
Codec ID : avc1
Codec ID/Info : Advanced Video Coding
Duration : 55mn 26s
Source duration : 26mn 48s
Bit rate : 500 Kbps
Width : 640 pixels
Height : 360 pixels
Display aspect ratio : 16:9
Frame rate mode : Constant
Frame rate : 23.976 fps
Color space : YUV
Chroma subsampling : 4:2:0
Bit depth : 8 bits
Scan type : Progressive
Bits/(Pixel*Frame) : 0.091
Stream size : 198 MiB (79%)
Source stream size : 198 MiB (79%)
Writing library : x264 core 146 r2538 121396c
Encoding settings : cabac=1 / ref=8 / deblock=1:-2:-2 / analyse=0x3:0x133 / me=umh / subme=10 / psy=1 / psy_rd=1.00:0.00 / mixed_ref=1 / me_range=24 / chroma_me=1 / trellis=2 / 8x8dct=1 / cqm=0 / deadzone=21,11 / fast_pskip=1 / chroma_qp_offset=-2 / threads=3 / lookahead_threads=1 / sliced_threads=0 / nr=0 / decimate=0 / interlaced=0 / bluray_compat=0 / constrained_intra=0 / bframes=8 / b_pyramid=2 / b_adapt=2 / b_bias=0 / direct=3 / weightb=1 / open_gop=0 / weightp=2 / keyint=240 / keyint_min=121 / scenecut=40 / intra_refresh=0 / rc_lookahead=40 / rc=2pass / mbtree=1 / bitrate=500 / ratetol=1.0 / qcomp=0.60 / qpmin=0 / qpmax=69 / qpstep=4 / cplxblur=20.0 / qblur=0.5 / ip_ratio=1.40 / aq=1:1.00
Menus : 3
mdhd_Duration : 3326579
Audio
ID : 2
Format : AAC
Format/Info : Advanced Audio Codec
Format profile : LC
Codec ID : 40
Duration : 55mn 26s
Bit rate mode : Variable
Bit rate : 128 Kbps
Channel(s) : 2 channels
Channel positions : Front: L R
Sampling rate : 48.0 KHz
Frame rate : 46.875 fps (1024 spf)
Compression mode : Lossy
Stream size : 50.8 MiB (20%)
Default : Yes
Alternate group : 1
Menus : 3
Релиз от:
[Профиль] [ЛС]
Кто просматривает тему:

Показать сообщения:    

Текущее время: Сегодня 20:41

Часовой пояс: GMT



Вы не можете начинать темы
Вы не можете отвечать на сообщения
Вы не можете редактировать свои сообщения
Вы не можете удалять свои сообщения
Вы не можете голосовать в опросах
Вы не можете прикреплять файлы к сообщениям
Вы не можете скачивать файлы