Рыцарь Майк / Mike the Knight [S01] (2012) SATRip | D

 
Автор Сообщение

sergej644 ®

Пол:

Стаж: 4 года 11 месяцев

Сообщений: 6037

Откуда: Soviet Union



Награды: Нет

Торрент-статистика

Создавать темы 06-Июл-2015 11:16

[Цитировать]

Информация о фильме
Название: Рыцарь Майк
Оригинальное название: Mike the Knight
Год выхода: 2012
Жанр: мультфильм, семейный
Страна: Канада, Великобритания
Студия: HIT Entertainment, Nelvana Studio
Продолжительность: ~ 00:12:00 серия
Перевод: Дублированный
Режиссер: Нил Аффлек
В ролях:
Саманта Рейнольдс, Трек Буччино, Элисон Корт, Эрин Питт, Мартин Роуч, Луис Сюк, Маттео Браголи, Бет Чалмерс, Боб Голдинг, Колин МакФарлэйн
О фильме:
Юный Майк живет в средневековом королевстве. Сын короля и королевы, он твердо решил стать благородным рыцарем, как и его отец. Выбрав своим девизом фразу «Время быть рыцарем, а рыцарь может всё!», Майк учится быть сильным, всегда поступать справедливо. Юный рыцарь с бурлящим энтузиазмом принимает любые вызовы, будь то охрана замка, организация праздника или спасение принцессы. Ежедневно он будет выполнять новые миссии и становиться похожим на настоящего рыцаря, конечно, не без помощи своих верных друзей.

Список серий

01. Улыбающееся сокровище / Smiley Treasure
02. Охота на драконов / The hunt for dragons
03. Рыцарский торт / Knight's cake
04. Мастерство наездника / Rider skill
05. Награда за добро / The reward for good
06. Начинающий следопыт / Beginner ranger
07. Сокровище Троллей / Treasure Trolls
08. Рыцарский турнир / Tournament Knight
09. Подготовка к празднику / Preparing for the holiday
10. Тролли в беде / Trolls in trouble
11. Вечер Страшилок / Evening scare
12. Знакомство с викингами / Familiarity with the Vikings
13. Тишина для королевы / Silence for the Queen
14. Новости королевства / News of the kingdom
15. Угощение для викинга / Treats for Viking
16. Особый сигнал / Special Signal
17. Монстр под мостом / The monster under the bridge
18. Верные оруженосцы / Faithful armour-bearers
19. Рыцарские прятки / Chivalry hide
20. Почётный гость / Honoured guest
21. Дорога домой / Road home
22. Важное поручение / Important commission
23. Приключение для дракона / Adventure for a dragon
24. Королевский портрет / Royal portrait
25. Зимняя прогулка / Winter walk
26. Рождественская история / A Christmas Carol
27. День большого обмена / Day of large exchange
28. Приз для рыцаря / Prize for a knight
29. Большой парад / Large parade
30. Конкурс талантов / Competition of talents
31. Ночь в лесу / Night in-field
32. Животное для рыцаря / Zoon for a knight
33. Секрет успешного спасения / Secret of successful rescue
34. Истинная храбрость / Veritable bravery
35. Секретный ингредиент / Secret ingredient
36. Сокровище для волшебницы / Treasure for an enchantress
37. Самый лучший рыцарь / The best knight
38. Новый замок / New lock
39. Конь в горошек / Horse in a pea
40. Игры на снегу / Games on to snow
41. Увлекательная история / Enthralling history
42. Медаль за храбрость / Medal for bravery
43. Полезный рыцарь / Useful knight
44. Кукольное представление / Doll presentation
45. Пикник на пляже / Picnic on a beach
46. Волшебный горшок / Magic pot
47. Пирог с рубином / Cake with ruby
48. Медвежья услуга / Bear favour
49. Великий защитник / The great defender
50. Простуженный олень / A cold deer
51. Летающие собаки / Flying dog
52. Очень важный гость / A very important guest
Файл
Кодек: XviD / AC3
Качество: SATRip
Видео: MPEG4, XviD, 720x400 (16:9), 25.000 fps, 1 700 Kbps (0.236 bit/pixel)
Звук: AC-3, 48.0 KHz, 2 ch, 192 Kbps, CBR

MediaInfo

General
Complete name : Rycar.Majk.(01.serija).Ulybajuweesja.sokroviwe.2012.XviD.SATRip.avi
Format : AVI
Format/Info : Audio Video Interleave
File size : 163 MiB
Duration : 11mn 59s
Overall bit rate : 1 902 Kbps
Director : Rip by Thunder
Writing application : VirtualDubMod 1.5.10.3 | www.virtualdub-fr.org || (build 2550/release)
Video
ID : 0
Format : MPEG-4 Visual
Format profile : Advanced Simple@L5
Format settings, BVOP : 2
Format settings, QPel : No
Format settings, GMC : No warppoints
Format settings, Matrix : Default (H.263)
Codec ID : XVID
Codec ID/Hint : XviD
Duration : 11mn 59s
Bit rate : 1 700 Kbps
Width : 720 pixels
Height : 400 pixels
Display aspect ratio : 16:9
Frame rate : 25.000 fps
Color space : YUV
Chroma subsampling : 4:2:0
Bit depth : 8 bits
Scan type : Progressive
Compression mode : Lossy
Bits/(Pixel*Frame) : 0.236
Stream size : 146 MiB (89%)
Writing library : XviD 1.2.1 (UTC 2008-12-04)
Audio
ID : 1
Format : AC-3
Format/Info : Audio Coding 3
Mode extension : CM (complete main)
Format settings, Endianness : Big
Codec ID : 2000
Duration : 11mn 59s
Bit rate mode : Constant
Bit rate : 192 Kbps
Channel(s) : 2 channels
Channel positions : Front: L R
Sampling rate : 48.0 KHz
Bit depth : 16 bits
Compression mode : Lossy
Stream size : 16.5 MiB (10%)
Alignment : Split accross interleaves
Interleave, duration : 40 ms (1.00 video frame)
Interleave, preload duration : 500 ms
[Профиль] [ЛС]
Кто просматривает тему:

Форум Тема Автор Размер
Фильмы (HD Rips | 720p, 1080p) Арн: Рыцарь-тамплиер / Arn: Tempelriddaren (2007) BDRip-AVC 720p | ATV | P sergej644 5.71 GB
Боевики, детективы, триллеры Верещагин Олег - Завещание рыцаря [Рустам Гинатуллин, (ЛИ), 2014 г., 128 kbps, MP3] sergej644 453 MB
Фильмы (HD Rips | 720p, 1080p) Волшебная лампа Аладдина (Борис Рыцарев) [1966, СССР, фэнтези, мелодрама, приключения, Blu-ray disc] TorrentFilm 16.23 GB
Фильмы (HD Rips | 720p, 1080p) Дон Кихот / Последний рыцарь / Don Quixote (Питер Йетс / Peter Yates) [2000, США, Великобритания, комедия, приключения, экранизация, DVDRip] DVO (Екатеринбург Арт) sergej644 2.1 GB
Фильмы 2011 года Железный рыцарь / Ironclad (2011) HDRip | Лицензия Russian Mafia 1.46 GB
Фильмы 2014 года Железный рыцарь 2 / Ironclad: Battle for Blood (2014) BDRip [1080p] [Line] sergej644 11.67 GB
Фильмы 2014 года Железный рыцарь 2 / Ironclad: Battle for Blood (2014) BDRip-AVC | D sergej644 2.75 GB
Фильмы 2014 года Железный рыцарь 2 / Ironclad: Battle for Blood (Джонатан Инглиш / Jonathan English) [2014, Великобритания, боевик, приключения, WEBRip] Dub (Звук с TS) bot 1.36 GB
Показать сообщения:    

Текущее время: Сегодня 15:58

Часовой пояс: GMT



Вы не можете начинать темы
Вы не можете отвечать на сообщения
Вы не можете редактировать свои сообщения
Вы не можете удалять свои сообщения
Вы не можете голосовать в опросах
Вы не можете прикреплять файлы к сообщениям
Вы не можете скачивать файлы