Рыцарь кубков / Knight of Cups (2015) HDRip-AVC | L2

 
Автор Сообщение

достали все ®

Пол:

Стаж: 1 год 8 месяцев

Сообщений: 6616



Награды: 12 (Подробнее)

Top Releaser 4 (Количество: 1) Top Releaser 3 (Количество: 1) За внесенный вклад в развитие сайта (Количество: 1)
Торрент-статистика

Создавать темы 08-Янв-2016 08:09

[Цитировать]

Информация о фильме
Название: Рыцарь кубков
Оригинальное название: Knight of Cups
Год выхода: 2015
Жанр: драма, мелодрама
Режиссер: Терренс Малик
В ролях: Кристиан Бэйл, Кейт Бланшетт, Натали Портман, Брайан Деннехи, Антонио Бандерас, Майкл Уинкотт, Фрида Пинто, Уэс Бентли, Изабель Лукас, Тереза Палмер
О фильме:
Сценарист, живущий в Лос-Анджелесе пытается разобраться в странных событиях, происходящих вокруг него.

Выпущено: США / Dogwood Films, Waypoint Entertainment
Продолжительность: 01:58:24
Озвучивание: Любительское (двухголосое) [Parovoz Production]
Файл
Формат: MKV
Качество: HDRip-AVC
Видео: High@L4.1, ~1562 kb/s, 1016x432
Аудио: AC3, 192 kb/s (2 ch)

M/I

General
Unique ID : 273542213502841294025074950288962478654 (0xCDCA50628F6756F2DB21B2E522EFE23E)
Complete name : F:FILMSНОВЫЕРыцарь кубков.(2015).HDRIP_AVC.[-=DoMiNo=-].mkv
Format : Matroska
Format version : Version 4 / Version 2
File size : 1.45 GiB
Duration : 1h 58mn
Overall bit rate : 1 754 Kbps
Movie name : Рыцарь кубков
Writing application : XviD4PSP 7.0.199
Writing library : Lavf56.40.101 / Lavf56.40.101
Cover : Yes
Attachments : cover.png
ACTORS : Кристиан Бэйл, Кейт Бланшетт, Натали Портман, Брайан Деннехи, Антонио Бандерас, Майкл Уинкотт, Фрида Пинто, Уэс Бентли, Изабель Лукас, Тереза Палмер, показать всех
COUNTRY : США
DATE : 2015
DIRECTOR : Терренс Малик
ENCODING_INFO : MATROSKA,WEBM > MKV / H264 > X264 VBR-2P 1562kbps Custom / AC3 > COPY
GENRE : драма, мелодрама
IMDB_RATING : 6.60
ITUNEXTC : mpaa|R|400|
ORIGINAL_TITLE : Knight of Cups
PRODUCER : Николас Гонда, Сара Грин, Кеннет Као
RATING : 7.103
SYNOPSIS : Сценарист, живущий в Лос-Анджелесе пытается разобраться в странных событиях, происходящих вокруг него.
WRITER : Терренс Малик
Video
ID : 1
Format : AVC
Format/Info : Advanced Video Codec
Format profile : High@L4.1
Format settings, CABAC : Yes
Format settings, ReFrames : 12 frames
Codec ID : V_MPEG4/ISO/AVC
Duration : 1h 58mn
Bit rate : 1 562 Kbps
Width : 1 016 pixels
Height : 432 pixels
Display aspect ratio : 2.35:1
Frame rate mode : Constant
Frame rate : 23.976 (24000/1001) fps
Color space : YUV
Chroma subsampling : 4:2:0
Bit depth : 8 bits
Scan type : Progressive
Bits/(Pixel*Frame) : 0.148
Stream size : 1.26 GiB (87%)
Writing library : x264 core 148 r2638M 7599210
Encoding settings : cabac=1 / ref=12 / deblock=1:-3:-3 / analyse=0x3:0x133 / me=umh / subme=11 / psy=1 / psy_rd=1.00:0.10 / mixed_ref=1 / me_range=32 / chroma_me=1 / trellis=2 / 8x8dct=1 / cqm=0 / deadzone=21,11 / fast_pskip=0 / chroma_qp_offset=-3 / threads=5 / lookahead_threads=1 / sliced_threads=0 / nr=0 / decimate=1 / interlaced=0 / bluray_compat=0 / constrained_intra=0 / bframes=11 / b_pyramid=2 / b_adapt=2 / b_bias=0 / direct=3 / weightb=1 / open_gop=0 / weightp=2 / keyint=230 / keyint_min=23 / scenecut=40 / intra_refresh=0 / rc=2pass / mbtree=0 / bitrate=1562 / ratetol=1.0 / qcomp=0.60 / qpmin=0 / qpmax=69 / qpstep=4 / cplxblur=20.0 / qblur=0.5 / ip_ratio=1.40 / pb_ratio=1.30 / aq=1:1.00
Language : English
Default : Yes
Forced : No
DURATION : 01:58:23.680000000
Audio
ID : 2
Format : AC-3
Format/Info : Audio Coding 3
Mode extension : CM (complete main)
Format settings, Endianness : Big
Codec ID : A_AC3
Duration : 1h 58mn
Bit rate mode : Constant
Bit rate : 192 Kbps
Channel(s) : 2 channels
Channel positions : Front: L R
Sampling rate : 48.0 KHz
Frame rate : 31.250 fps (1536 spf)
Bit depth : 32 bits
Compression mode : Lossy
Stream size : 163 MiB (11%)
Language : Russian
Default : Yes
Forced : No
DURATION : 01:58:23.648000000
Menu
00:00:00.000 : :00:00:00.000
00:09:33.406 : :00:09:33.406
00:21:16.400 : :00:21:16.400
00:30:05.679 : :00:30:05.679
00:39:28.324 : :00:39:28.324
00:49:00.146 : :00:49:00.146
00:59:26.646 : :00:59:26.646
01:10:42.613 : :01:10:42.613
01:21:11.408 : :01:21:11.408
01:30:31.593 : :01:30:31.593
01:40:46.624 : :01:40:46.624
01:51:10.414 : :01:51:10.414
01:58:10.166 : :01:58:10.166

Скриншоты

[Профиль] [ЛС]
Кто просматривает тему:

Форум Тема Автор Размер
Фильмы (HD Rips | 720p, 1080p) Арн: Рыцарь-тамплиер / Arn: Tempelriddaren (2007) BDRip-AVC 720p | ATV | P sergej644 5.71 GB
Боевики, детективы, триллеры Верещагин Олег - Завещание рыцаря [Рустам Гинатуллин, (ЛИ), 2014 г., 128 kbps, MP3] sergej644 453 MB
Фильмы (HD Rips | 720p, 1080p) Волшебная лампа Аладдина (Борис Рыцарев) [1966, СССР, фэнтези, мелодрама, приключения, Blu-ray disc] TorrentFilm 16.23 GB
Фильмы (HD Rips | 720p, 1080p) Дон Кихот / Последний рыцарь / Don Quixote (Питер Йетс / Peter Yates) [2000, США, Великобритания, комедия, приключения, экранизация, DVDRip] DVO (Екатеринбург Арт) sergej644 2.1 GB
Фильмы 2011 года Железный рыцарь / Ironclad (2011) HDRip | Лицензия Russian Mafia 1.46 GB
Фильмы 2014 года Железный рыцарь 2 / Ironclad: Battle for Blood (2014) BDRip [1080p] [Line] sergej644 11.67 GB
Фильмы 2014 года Железный рыцарь 2 / Ironclad: Battle for Blood (2014) BDRip-AVC | D sergej644 2.75 GB
Фильмы 2014 года Железный рыцарь 2 / Ironclad: Battle for Blood (Джонатан Инглиш / Jonathan English) [2014, Великобритания, боевик, приключения, WEBRip] Dub (Звук с TS) bot 1.36 GB
Показать сообщения:    

Текущее время: Сегодня 06:25

Часовой пояс: GMT



Вы не можете начинать темы
Вы не можете отвечать на сообщения
Вы не можете редактировать свои сообщения
Вы не можете удалять свои сообщения
Вы не можете голосовать в опросах
Вы не можете прикреплять файлы к сообщениям
Вы не можете скачивать файлы