Рыцарь дня / Knight and Day (Джеймс Мэнголд / James Mangold) [2010, США, боевик, мелодрама, комедия, приключения, SATRip] [Театральная версия (Full Screen)] AVO (Гаврилов) + Dub (Rus, Ukr)

 
Автор Сообщение

TorrentFilm ®

Пол:

Стаж: 2 года

Сообщений: 7741



Награды: Нет

Торрент-статистика

Создавать темы 24-Апр-2015 00:04

[Цитировать]

Рыцарь дня / Knight and Day Страна: США
Жанр: боевик, мелодрама, комедия, приключения
Год выпуска: 2010
Продолжительность: 01:39:54
Перевод 1: Авторский (одноголосый закадровый) Андрей Гаврилов
Перевод 2: Профессиональный (полное дублирование) русский
Перевод 3: Профессиональный (полное дублирование) украинский
Cубтитры: нет
Режиссер: Джеймс Мэнголд / James Mangold
В ролях: Том Круз, Кэмерон Диаз, Питер Сарсгаард, Жорди Молья, Виола Дэвис, Пол Дано, Фальк Хеншел, Марк Блукас, Ленни Лофтин, Мэгги Грэйс
Описание: Случайная встреча в аэропорту одинокой женщины Джун Хэвенс и обаятельного агента Миллера приводит к тому, что им приходится вместе колесить по всему свету, спасаясь от наемных убийц и пытаясь уберечь от коварных злодеев мощную батарею, которая является уникальным источником энергии.
Попадая в бесчисленные передряги и постоянно находясь на волоске от смерти, Джун все время мучается в догадках, кто же на самом деле ее неугомонный спутник — спаситель человечества, предатель или просто-напросто сумасшедший…

Качество видео: SATRip
Формат видео: AVI
Видео кодек: XviD
Аудио кодек: AC3
Видео: 640x480 (1.33:1), 25 fps, XviD build 73 ~1505 kbps avg, 0.20 bit/pixel
Аудио#1: 48 kHz, AC3 Dolby Digital, 2/0 (L,R) ch, ~192 kbps - Гаврилов
Аудио#2: 48 kHz, AC3 Dolby Digital, 2/0 (L,R) ch, ~192 kbps - Дубляж (рус)
Аудио#3: 48 kHz, AC3 Dolby Digital, 2/0 (L,R) ch, ~192 kbps - Дубляж (укр)

Доп.инфо

за исходник спасибо ChuvakN1

MediaInfo

Полное имя : Рыцарь дня ТС.avi
Формат : AVI
Формат/Информация : Audio Video Interleave
Размер файла : 1,47 Гбайт
Продолжительность : 1 ч. 39 м.
Общий поток : 2102 Кбит/сек
Программа кодирования : VirtualDubMod 1.5.10.2 (build 2540/release)
Видео
Идентификатор : 0
Формат : MPEG-4 Visual
Профиль формата : Advanced Simple@L5
Параметр BVOP формата : 1
Параметр QPel формата : Нет
Параметр GMC формата : Без точки перехода
Параметр матрицы формата : Выборочная
Идентификатор кодека : XVID
Идентификатор кодека/Подсказка : XviD
Продолжительность : 1 ч. 39 м.
Битрейт : 1507 Кбит/сек
Ширина : 640 пикселей
Высота : 480 пикселей
Соотношение сторон : 4:3
Частота кадров : 25,000 кадров/сек
Цветовое пространство : YUV
Субдискретизация насыщенности : 4:2:0
Битовая глубина : 8 бит
Тип развёртки : Прогрессивная
Метод сжатия : С потерями
Бит/(Пиксели*Кадры) : 0.196
Размер потока : 1,05 Гбайт (72%)
Библиотека кодирования : XviD 73
Аудио #1
Идентификатор : 1
Формат : AC-3
Формат/Информация : Audio Coding 3
Расширение режима : CM (complete main)
Параметр Endianness формата : Big
Идентификатор кодека : 2000
Продолжительность : 1 ч. 39 м.
Вид битрейта : Постоянный
Битрейт : 192 Кбит/сек
Каналы : 2 канала
Расположение каналов : Front: L R
Частота : 48,0 КГц
Битовая глубина : 16 бит
Метод сжатия : С потерями
Размер потока : 137 Мбайт (9%)
Выравнивание : Разделение по промежуткам
Продолжительность промежутка : 40 мс. (1,00 видеокадр)
Время предзагрузки промежутка : 500 мс.
Заголовок : Гаврилов
Аудио #2
Идентификатор : 2
Формат : AC-3
Формат/Информация : Audio Coding 3
Расширение режима : CM (complete main)
Параметр Endianness формата : Big
Идентификатор кодека : 2000
Продолжительность : 1 ч. 39 м.
Вид битрейта : Постоянный
Битрейт : 192 Кбит/сек
Каналы : 2 канала
Расположение каналов : Front: L R
Частота : 48,0 КГц
Битовая глубина : 16 бит
Метод сжатия : С потерями
Размер потока : 137 Мбайт (9%)
Выравнивание : Разделение по промежуткам
Продолжительность промежутка : 40 мс. (1,00 видеокадр)
Время предзагрузки промежутка : 500 мс.
Заголовок : Дубляж рус
Аудио #3
Идентификатор : 3
Формат : AC-3
Формат/Информация : Audio Coding 3
Расширение режима : CM (complete main)
Параметр Endianness формата : Big
Идентификатор кодека : 2000
Продолжительность : 1 ч. 39 м.
Вид битрейта : Постоянный
Битрейт : 192 Кбит/сек
Каналы : 2 канала
Расположение каналов : Front: L R
Частота : 48,0 КГц
Битовая глубина : 16 бит
Метод сжатия : С потерями
Размер потока : 137 Мбайт (9%)
Выравнивание : Разделение по промежуткам
Продолжительность промежутка : 40 мс. (1,00 видеокадр)
Время предзагрузки промежутка : 500 мс.
Заголовок : Дубляж укр
[Профиль] [ЛС]

Создавать темы 06-Авг-2015 22:35 (спустя 3 месяца 12 дней)

Топик был перенесен из форума Фильмы до 2014 года в форум Фильмы до 2012 года
sergej644
 

Создавать темы 12-Июн-2016 07:54 (спустя 1 год 1 месяц)

Топик был перенесен из форума Фильмы 2011 года в форум Фильмы 2010 года
Russian Mafia
 
Кто просматривает тему:

Форум Тема Автор Размер
Фильмы (HD Rips | 720p, 1080p) Арн: Рыцарь-тамплиер / Arn: Tempelriddaren (2007) BDRip-AVC 720p | ATV | P sergej644 5.71 GB
Боевики, детективы, триллеры Верещагин Олег - Завещание рыцаря [Рустам Гинатуллин, (ЛИ), 2014 г., 128 kbps, MP3] sergej644 453 MB
Фильмы (HD Rips | 720p, 1080p) Волшебная лампа Аладдина (Борис Рыцарев) [1966, СССР, фэнтези, мелодрама, приключения, Blu-ray disc] TorrentFilm 16.23 GB
Фильмы (HD Rips | 720p, 1080p) Дон Кихот / Последний рыцарь / Don Quixote (Питер Йетс / Peter Yates) [2000, США, Великобритания, комедия, приключения, экранизация, DVDRip] DVO (Екатеринбург Арт) sergej644 2.1 GB
Фильмы 2011 года Железный рыцарь / Ironclad (2011) HDRip | Лицензия Russian Mafia 1.46 GB
Фильмы 2014 года Железный рыцарь 2 / Ironclad: Battle for Blood (2014) BDRip [1080p] [Line] sergej644 11.67 GB
Фильмы 2014 года Железный рыцарь 2 / Ironclad: Battle for Blood (2014) BDRip-AVC | D sergej644 2.75 GB
Фильмы 2014 года Железный рыцарь 2 / Ironclad: Battle for Blood (Джонатан Инглиш / Jonathan English) [2014, Великобритания, боевик, приключения, WEBRip] Dub (Звук с TS) bot 1.36 GB
Показать сообщения:    

Текущее время: Сегодня 16:55

Часовой пояс: GMT



Вы не можете начинать темы
Вы не можете отвечать на сообщения
Вы не можете редактировать свои сообщения
Вы не можете удалять свои сообщения
Вы не можете голосовать в опросах
Вы не можете прикреплять файлы к сообщениям
Вы не можете скачивать файлы