Рыцарь Диди и принцесса Лили / O Cavaleiro Didi e a Princesa Lili (Маркус Фигейреду / Marcus Figueiredo) [2006, Бразилия, семейный, DVDRip] MVO (Кинопоказ) + Original Por

 
Автор Сообщение

TorrentFilm ®

Пол:

Стаж: 2 года

Сообщений: 7741



Награды: Нет

Торрент-статистика

Создавать темы 21-Янв-2015 00:00

[Цитировать]

Рыцарь Диди и принцесса Лили / O Cavaleiro Didi e a Princesa Lili
Страна: Бразилия
Жанр: семейный
Год выпуска: 2006
Продолжительность: 01:30:43
Перевод: Профессиональный (многоголосый закадровый) Кинопоказ
Cубтитры: нет
Оригинальная аудиодорожка: португальский
Режиссер: Маркус Фигейреду / Marcus Figueiredo
В ролях: Ливиан Арагао
Ренато Арагао
Бернардо Баррето
Гильерме Беренджер
Карлос Бонов
Элис Боргес
Julya Dalavia
Айке Дуарте
Вера Холц
John Klarner
Описание: Это приключенческий фильм о Диди - камердинере Короля Линдольфо, верном слуге королевской семьи. После смерти Короля его злой брат Джафар пытается захватить трон. Он организует заговор для своего сына Галанта, чтобы женить его на молодой принцессе Лили, но Диди не позволит ему уйти так легко с его планами. Неуклюжий камердинер борется смело, чтобы бережно хранить королевство от Джафара, и он стремится сделать что-либо, чтобы помочь принцессе Лили и ее возлюбленному детства Хуану, который является простым человеком, чтобы быть вместе.
Сэмпл: http://multi-up.com/1027810
Качество видео: DVDRip
Формат видео: AVI
Видео: MPEG4, XviD, 720x400 (16/9), 23.976 fps, 1 959 Kbps (0.284 bit/pixel)
Аудио: AC-3, 48.0 KHz, 2 ch, 192 Kbps, CBR - русский
Аудио 2: AC-3, 48.0 KHz, 2 ch, 192 Kbps, CBR - английский

MediaInfo

Общее
Полное имя : K:\Рыцарь Диди и принцесса Лили.avi
Формат : AVI
Формат/Информация : Audio Video Interleave
Размер файла : 1,49 Гбайт
Продолжительность : 1 ч. 30 м.
Общий поток : 2358 Кбит/сек
Название фильма : Рыцарь Диди и принцесса Лили / O Cavaleiro Didi e a Princesa Lili (2006)
Программа кодирования : VirtualDubMod 1.5.10.2 (build 2540/release)
Библиотека кодирования : VirtualDubMod build 2540/release
Видео
Идентификатор : 0
Формат : MPEG-4 Visual
Профиль формата : Advanced Simple@L5
Параметр BVOP формата : 1
Параметр QPel формата : Нет
Параметр GMC формата : Без точки перехода
Параметр матрицы формата : Выборочная
Идентификатор кодека : XVID
Идентификатор кодека/Подсказка : XviD
Продолжительность : 1 ч. 30 м.
Битрейт : 1959 Кбит/сек
Ширина : 720 пикселей
Высота : 400 пикселей
Соотношение сторон : 16:9
Частота кадров : 23,976 кадра/сек
Цветовое пространство : YUV
Субдискретизация насыщенности : 4:2:0
Битовая глубина : 8 бит
Тип развёртки : Прогрессивная
Метод сжатия : С потерями
Бит/(Пиксели*Кадры) : 0.284
Размер потока : 1,24 Гбайт (83%)
Библиотека кодирования : XviD 62
Аудио #1
Идентификатор : 1
Формат : AC-3
Формат/Информация : Audio Coding 3
Расширение режима : CM (complete main)
Параметр Endianness формата : Big
Идентификатор кодека : 2000
Продолжительность : 1 ч. 30 м.
Вид битрейта : Постоянный
Битрейт : 192 Кбит/сек
Каналы : 2 канала
Расположение каналов : Front: L R
Частота : 48,0 КГц
Битовая глубина : 16 бит
Метод сжатия : С потерями
Размер потока : 125 Мбайт (8%)
Выравнивание : Разделение по промежуткам
Продолжительность промежутка : 42 мс. (1,00 видеокадр)
Время предзагрузки промежутка : 500 мс.
Заголовок : Профессиональный (многоголосый закадровый) Кинопоказ
Аудио #2
Идентификатор : 2
Формат : AC-3
Формат/Информация : Audio Coding 3
Расширение режима : CM (complete main)
Параметр Endianness формата : Big
Идентификатор кодека : 2000
Продолжительность : 1 ч. 30 м.
Вид битрейта : Постоянный
Битрейт : 192 Кбит/сек
Каналы : 2 канала
Расположение каналов : Front: L R
Частота : 48,0 КГц
Битовая глубина : 16 бит
Метод сжатия : С потерями
Размер потока : 125 Мбайт (8%)
Выравнивание : Разделение по промежуткам
Продолжительность промежутка : 42 мс. (1,00 видеокадр)
Время предзагрузки промежутка : 500 мс.
Заголовок : Португальский

Скриншоты

[Профиль] [ЛС]

Создавать темы 06-Авг-2015 22:47 (спустя 6 месяцев 16 дней)

Топик был перенесен из форума Фильмы до 2014 года в форум Фильмы до 2012 года
sergej644
 
Кто просматривает тему:

Форум Тема Автор Размер
Фильмы (HD Rips | 720p, 1080p) Арн: Рыцарь-тамплиер / Arn: Tempelriddaren (2007) BDRip-AVC 720p | ATV | P sergej644 5.71 GB
Боевики, детективы, триллеры Верещагин Олег - Завещание рыцаря [Рустам Гинатуллин, (ЛИ), 2014 г., 128 kbps, MP3] sergej644 453 MB
Фильмы (HD Rips | 720p, 1080p) Волшебная лампа Аладдина (Борис Рыцарев) [1966, СССР, фэнтези, мелодрама, приключения, Blu-ray disc] TorrentFilm 16.23 GB
Фильмы (HD Rips | 720p, 1080p) Дон Кихот / Последний рыцарь / Don Quixote (Питер Йетс / Peter Yates) [2000, США, Великобритания, комедия, приключения, экранизация, DVDRip] DVO (Екатеринбург Арт) sergej644 2.1 GB
Фильмы 2011 года Железный рыцарь / Ironclad (2011) HDRip | Лицензия Russian Mafia 1.46 GB
Фильмы 2014 года Железный рыцарь 2 / Ironclad: Battle for Blood (2014) BDRip [1080p] [Line] sergej644 11.67 GB
Фильмы 2014 года Железный рыцарь 2 / Ironclad: Battle for Blood (2014) BDRip-AVC | D sergej644 2.75 GB
Фильмы 2014 года Железный рыцарь 2 / Ironclad: Battle for Blood (Джонатан Инглиш / Jonathan English) [2014, Великобритания, боевик, приключения, WEBRip] Dub (Звук с TS) bot 1.36 GB
Показать сообщения:    

Текущее время: Сегодня 22:42

Часовой пояс: GMT



Вы не можете начинать темы
Вы не можете отвечать на сообщения
Вы не можете редактировать свои сообщения
Вы не можете удалять свои сообщения
Вы не можете голосовать в опросах
Вы не можете прикреплять файлы к сообщениям
Вы не можете скачивать файлы