Рыцари / Die Welt der Ritter (Knights) [серии 1-3 из 3] (Christian Feyerabend) [2014 г., Документальный, история, постановочный, SATRip]

 
Автор Сообщение

skorpionN ®

Пол:

Стаж: 1 год 8 месяцев

Сообщений: 591



Награды: 4 (Подробнее)

Mega Seeder 1 (Количество: 1) Mega Seeder 2 (Количество: 1) Top Releaser 2 (Количество: 1)
Торрент-статистика

Создавать темы 09-Янв-2016 17:14

[Цитировать]

Рыцари / Die Welt der Ritter (Knights) [серии 1-3 из 3]
Год выпуска: 2014
Страна: Германия, Gruppe 5 Filmproduktion, Zweites Deutsches Fernsehen (ZDF)
Жанр: Документальный, история, постановочный
Продолжительность: 3x~00:50:10
Перевод: Профессиональный (одноголосый), компания "Видеофильм ТВ"
Режиссер: Christian Feyerabend
Описание: Рыцари... Как они пережили заговоры, распри и осады? Как они побеждали в поединках или крупных сражениях? Зачем они сражались в турнирах и как они вошли в легенды? Поскольку они окончательно не вымерли то живут и по сей день: в кино, видеоиграх и фестивалях.
В этом сериале мы проследим путь становления рыцарства от самого начала и до последних дней, узнаем что представляло собой оружие рыцаря, как создавались луки, мечи и кольчуга. Познакомимся с жилищами рыцарей и их бытом. Примем участие в рыцарских турнирах, походах и войнах, которые вели рыцари.
Список серий:
01. Закованные в железо
02. Во имя чести и славы
03. Последний в своем роде

Качество: SATRip
Формат: AVI
Видео кодек: XviD
Аудио кодек: AC3
Видео: 720x400 25fps ~1800 Kbps
Аудио: AC3 2ch, 48kHz, 192 kbps

MediaInfo:

Format : AVI
Format/Info : Audio Video Interleave
File size : 717 MiB
Duration : 50mn 10s
Overall bit rate : 1 997 Kbps
Writing application : TMPGEnc Video Mastering Works 5 Version. 5.0.6.38
Writing library : TMPGEnc Video Mastering Works 5 Version. 5.0.6.38
Video
ID : 0
Format : MPEG-4 Visual
Format profile : Advanced Simple@L5
Format settings, BVOP : 2
Format settings, QPel : No
Format settings, GMC : No warppoints
Format settings, Matrix : Default (H.263)
Muxing mode : Packed bitstream
Codec ID : XVID
Codec ID/Hint : XviD
Duration : 50mn 10s
Bit rate : 1 797 Kbps
Width : 720 pixels
Height : 400 pixels
Display aspect ratio : 16:9
Frame rate : 25.000 fps
Color space : YUV
Chroma subsampling : 4:2:0
Bit depth : 8 bits
Scan type : Progressive
Compression mode : Lossy
Bits/(Pixel*Frame) : 0.250
Stream size : 645 MiB (90%)
Writing library : XviD 73
Audio
ID : 1
Format : AC-3
Format/Info : Audio Coding 3
Mode extension : CM (complete main)
Format settings, Endianness : Big
Codec ID : 2000
Duration : 50mn 10s
Bit rate mode : Constant
Bit rate : 192 Kbps
Channel(s) : 2 channels
Channel positions : Front: L R
Sampling rate : 48.0 KHz
Bit depth : 16 bits
Compression mode : Lossy
Stream size : 68.9 MiB (10%)
Alignment : Aligned on interleaves
Interleave, duration : 240 ms (6.00 video frames)
Interleave, preload duration : 224 ms

Внимание! Раздача ведётся путём добавления новых выпусков

Внимание! Раздача ведётся путём добавления новых выпусков; при каждом добавлении создаётся новый торрент. Чтобы начать докачку нового выпуска, пользователям необходимо сделать следующее:
(1) остановить скачивание,
(2) удалить старый торрент у себя из клиента (старые серии удалять не надо),
(3) скачать новый торрент и запустить его у себя в клиенте вместо старого, при этом указать клиенту путь в старую папку куда и должно происходить скачивание новых выпусков.
Ваш клиент при этом должен произвести хеширование (проверку) старой папки (если не производит сам - помогите ему сделать это). В результате он будет докачивать только те выпуски, которых у Вас ещё нет. Старые выпуски при этом не удаляются, а продолжают раздаваться!
Eсли Вы уже удалили старые выпуски, то предотвратить их повторную закачку можно, сняв галочки в соответствующих местах при запуске нового торрента. По возможности, желательно не удалять старые выпуски как можно дольше, чтобы релизёр не только продолжал раздавать старые выпуски, но и смог сконцентрироваться на новых.
Добавлено
01. Закованные в железо


Последний раз редактировалось: skorpionN (2016-01-14 10:25), всего редактировалось 7 раз(а)
[Профиль] [ЛС]

skorpionN ®

Пол:

Стаж: 1 год 8 месяцев

Сообщений: 591



Награды: 4 (Подробнее)

Top Releaser 2 (Количество: 1) Mega Seeder 3 (Количество: 1) Mega Seeder 1 (Количество: 1)
Торрент-статистика

Создавать темы 10-Янв-2016 07:26 (спустя 14 часов)

[Цитировать]

Сериал окончен
[Профиль] [ЛС]

KiruhaDelMar

Стаж: 1 год 8 месяцев

Сообщений: 247



Награды: Нет

Торрент-статистика

Создавать темы 10-Янв-2016 13:09 (спустя 5 часов)

[Цитировать]

Ты забебал постеры менять
[Профиль] [ЛС]

skorpionN ®

Пол:

Стаж: 1 год 8 месяцев

Сообщений: 591



Награды: 4 (Подробнее)

Mega Seeder 3 (Количество: 1) Top Releaser 2 (Количество: 1) Mega Seeder 2 (Количество: 1)
Торрент-статистика

Создавать темы 10-Янв-2016 14:28 (спустя 1 час 19 минут)

[Цитировать]

88240Ты забебал постеры менять
А оно тебе надо? Ты и без постера на ютубчик повесиш
[Профиль] [ЛС]
Кто просматривает тему:

Форум Тема Автор Размер
Фильмы (HD Rips | 720p, 1080p) Арн: Рыцарь-тамплиер / Arn: Tempelriddaren (2007) BDRip-AVC 720p | ATV | P sergej644 5.71 GB
Боевики, детективы, триллеры Верещагин Олег - Завещание рыцаря [Рустам Гинатуллин, (ЛИ), 2014 г., 128 kbps, MP3] sergej644 453 MB
Фильмы (HD Rips | 720p, 1080p) Волшебная лампа Аладдина (Борис Рыцарев) [1966, СССР, фэнтези, мелодрама, приключения, Blu-ray disc] TorrentFilm 16.23 GB
Фильмы (HD Rips | 720p, 1080p) Дон Кихот / Последний рыцарь / Don Quixote (Питер Йетс / Peter Yates) [2000, США, Великобритания, комедия, приключения, экранизация, DVDRip] DVO (Екатеринбург Арт) sergej644 2.1 GB
Фильмы 2011 года Железный рыцарь / Ironclad (2011) HDRip | Лицензия Russian Mafia 1.46 GB
Фильмы 2014 года Железный рыцарь 2 / Ironclad: Battle for Blood (2014) BDRip [1080p] [Line] sergej644 11.67 GB
Фильмы 2014 года Железный рыцарь 2 / Ironclad: Battle for Blood (2014) BDRip-AVC | D sergej644 2.75 GB
Фильмы 2014 года Железный рыцарь 2 / Ironclad: Battle for Blood (Джонатан Инглиш / Jonathan English) [2014, Великобритания, боевик, приключения, WEBRip] Dub (Звук с TS) bot 1.36 GB
Показать сообщения:    

Текущее время: Сегодня 03:24

Часовой пояс: GMT



Вы не можете начинать темы
Вы не можете отвечать на сообщения
Вы не можете редактировать свои сообщения
Вы не можете удалять свои сообщения
Вы не можете голосовать в опросах
Вы не можете прикреплять файлы к сообщениям
Вы не можете скачивать файлы