Рысья жизнь | The Lynx Liaison (Вальтер Кёлер / Walter Köhler) [2010, Документальный, TS, 1080i, H264, RUS, HDTV]

 
Автор Сообщение

TorrentFilm ®

Пол:

Стаж: 2 года

Сообщений: 7741



Награды: Нет

Торрент-статистика

Создавать темы 27-Июл-2015 00:07

[Цитировать]

Рысья жизнь | The Lynx Liaison (Вальтер Кёлер / Walter Köhler)
Год выпуска: 2010
Страна: Чехия
Жанр: Документальный
Режиссёр: Вальтер Кёлер / Walter Köhler
Продолжительность: 00:50:17
Перевод: Профессиональный (одноголосый)
Русские субтитры: Нет
Автор записи: Nikolay_-_-
Канал:
Описание: Эта история о дружбе человека и зверя. Биолог Милош Майда хочет поспособствовать увеличению популяции диких рысей. Он собирается вырастить двух котят, которых подарил ему чешский зоопарк.
Сэмпл.
Качество: HDTV
Формат: TS
Видео: H264; 1920x1080 (16:9); 25.000 fps; 10700 kbps
Аудио: AC-3; 48000 Hz; 448 kbps; Stereo; 6 channels-

MediaInfo

Общее
Идентификатор : 1 (0x1)
Полное имя : F:\Download\The Lynx Liaison.2010-Nikolay_-_-.ts
Формат : MPEG-TS
Размер файла : 4,14 Гбайт
Продолжительность : 50 м.
Режим общего битрейта : Переменный
Общий поток : 11,8 Мбит/сек
Видео
Идентификатор : 69 (0x45)
Идентификатор меню : 1 (0x1)
Формат : AVC
Формат/Информация : Advanced Video Codec
Профиль формата : Main@L4
Параметр CABAC формата : Да
Параметр ReFrames формата : 3 кадра
Идентификатор кодека : 27
Продолжительность : 50 м.
Битрейт : 10,7 Мбит/сек
Ширина : 1920 пикселей
Высота : 1080 пикселей
Соотношение сторон : 16:9
Частота кадров : 25,000 кадров/сек
Стандарт вещания : Component
Цветовое пространство : YUV
Субдискретизация насыщенности : 4:2:0
Битовая глубина : 8 бит
Тип развёртки : Чересстрочная
Порядок развёртки : Верхнее поле первое
Бит/(Пиксели*Кадры) : 0.207
Размер потока : 3,77 Гбайт (91%)
Цветовой диапазон : Limited
Основные цвета : BT.709
Характеристики трансфера : BT.709
Коэффициенты матрицы : BT.709
Аудио
Идентификатор : 68 (0x44)
Идентификатор меню : 1 (0x1)
Формат : AC-3
Формат/Информация : Audio Coding 3
Расширение режима : CM (complete main)
Параметр Endianness формата : Big
Идентификатор кодека : 6
Продолжительность : 50 м.
Вид битрейта : Постоянный
Битрейт : 448 Кбит/сек
Каналы : 6 каналов
Расположение каналов : Front: L C R, Side: L R, LFE
Частота : 48,0 КГц
Метод сжатия : С потерями
Размер потока : 161 Мбайт (4%)
Язык : Russian

Скриншоты

-
[Профиль] [ЛС]
Показать сообщения:    

Текущее время: Сегодня 00:19

Часовой пояс: GMT



Вы не можете начинать темы
Вы не можете отвечать на сообщения
Вы не можете редактировать свои сообщения
Вы не можете удалять свои сообщения
Вы не можете голосовать в опросах
Вы не можете прикреплять файлы к сообщениям
Вы не можете скачивать файлы