Рысья жизнь | The Lynx Liaison (Вальтер Кёлер / Walter Köhler) [2010, Документальный, MKV, 720p, 50 fps, H264, CRF 21, RUS, HDTVRip]

 
Автор Сообщение

TorrentFilm ®

Пол:

Стаж: 1 год 11 месяцев

Сообщений: 7741



Награды: Нет

Торрент-статистика

Создавать темы 17-Июл-2015 00:07

[Цитировать]

Рысья жизнь | The Lynx Liaison (Вальтер Кёлер / Walter Köhler)
Год выпуска: 2010
Страна: Чехия
Жанр: Документальный
Режиссёр: Вальтер Кёлер / Walter Köhler
Продолжительность: 00:50:17
Перевод: Профессиональный (одноголосый)
Русские субтитры: Нет
Автор записи и рипа: Nikolay_-_-
Канал:
Описание: Эта история о дружбе человека и зверя. Биолог Милош Майда хочет поспособствовать увеличению популяции диких рысей. Он собирается вырастить двух котят, которых подарил ему чешский зоопарк.
Сэмпл.
Качество: HDTVRip
Формат: MKV
Видео: H264; 1280x720 (16:9); 50.000 fps; 6135 kbps
Аудио: AC-3; 48000 Hz; 448 kbps; Stereo; 6 channels-

MediaInfo

Общее
Уникальный идентификатор : 298661719805488053732061850294830233972 (0xE0B027AA3FFC536282B07309DDABF974)
Полное имя : F:\Download\The Lynx Liaison.2010-Nikolay_-_-.mkv
Формат : Matroska
Версия формата : Version 4 / Version 2
Размер файла : 2,31 Гбайт
Продолжительность : 50 м.
Общий поток : 6587 Кбит/сек
Программа кодирования : XviD4PSP 7.0.148
Библиотека кодирования : Lavf56.25.101
ENCODING_INFO : MPEGTS > MKV 720p / H264 > X264 CRF-2P 21,0 Custom / AC3 > COPY
Видео
Идентификатор : 1
Формат : AVC
Формат/Информация : Advanced Video Codec
Профиль формата : High@L4.1
Параметр CABAC формата : Да
Параметр ReFrames формата : 4 кадра
Идентификатор кодека : V_MPEG4/ISO/AVC
Продолжительность : 50 м.
Битрейт : 6135 Кбит/сек
Ширина : 1280 пикселей
Высота : 720 пикселей
Соотношение сторон : 16:9
Режим частоты кадров : Постоянный
Частота кадров : 50,000 кадров/сек
Цветовое пространство : YUV
Субдискретизация насыщенности : 4:2:0
Битовая глубина : 8 бит
Тип развёртки : Прогрессивная
Бит/(Пиксели*Кадры) : 0.133
Размер потока : 2,11 Гбайт (91%)
Библиотека кодирования : x264 core 146 r2538M 121396c
Настройки программы : cabac=1 / ref=1 / deblock=1:-2:-2 / analyse=0x3:0x3 / me=dia / subme=1 / psy=1 / psy_rd=1,00:0,00 / mixed_ref=0 / me_range=8 / chroma_me=1 / trellis=0 / 8x8dct=1 / cqm=0 / deadzone=21,11 / fast_pskip=1 / chroma_qp_offset=0 / threads=10 / lookahead_threads=3 / sliced_threads=0 / nr=0 / decimate=1 / interlaced=0 / bluray_compat=0 / constrained_intra=0 / bframes=3 / b_pyramid=2 / b_adapt=2 / b_bias=0 / direct=3 / weightb=1 / open_gop=0 / weightp=1 / keyint=300 / keyint_min=30 / scenecut=40 / intra_refresh=0 / rc=2pass / mbtree=0 / bitrate=6135 / ratetol=1,0 / qcomp=0,60 / qpmin=10 / qpmax=51 / qpstep=4 / cplxblur=20,0 / qblur=0,5 / ip_ratio=1,40 / pb_ratio=1,30 / aq=1:1,00
Default : Да
Forced : Нет
Аудио
Идентификатор : 2
Формат : AC-3
Формат/Информация : Audio Coding 3
Расширение режима : CM (complete main)
Параметр Endianness формата : Big
Идентификатор кодека : A_AC3
Продолжительность : 50 м.
Вид битрейта : Постоянный
Битрейт : 448 Кбит/сек
Каналы : 6 каналов
Расположение каналов : Front: L C R, Side: L R, LFE
Частота : 48,0 КГц
Битовая глубина : 32 бит
Метод сжатия : С потерями
Размер потока : 161 Мбайт (7%)
Язык : Russian
Default : Да
Forced : Нет

Скриншоты

-
[Профиль] [ЛС]
Показать сообщения:    

Текущее время: Сегодня 11:55

Часовой пояс: GMT



Вы не можете начинать темы
Вы не можете отвечать на сообщения
Вы не можете редактировать свои сообщения
Вы не можете удалять свои сообщения
Вы не можете голосовать в опросах
Вы не можете прикреплять файлы к сообщениям
Вы не можете скачивать файлы