Рыжий / Rosso Malpelo / Little Boy Red (Паскуале Шимека / Pasquale Scimeca) [2007, Италия, драма, экранизация, веризм, DVB-AVC] MVO (Kino Polska) + Original (Ita)

 
Автор Сообщение

TorrentFilm ®

Пол:

Стаж: 2 года

Сообщений: 7741



Награды: Нет

Торрент-статистика

Создавать темы 14-Июл-2015 00:10

[Цитировать]

Рыжий
Rosso Malpelo- Страна: Италия
Жанр: драма, экранизация, веризм
Год выпуска: 2007
Продолжительность: 01:18:39Перевод: Профессиональный (многоголосый закадровый) по заказу Kino Polska на производственно-технической базе Студии "Акцент"
Cубтитры: нет
Оригинальная аудиодорожка: итальянский
Режиссер: Паскуале Шимека / Pasquale Scimeca
В ролях: Антонио Чиурка / Antonio Ciurca (Rosso Malpelo), Оман Ното / Omar Noto (Ranocchio), Винченцо Альбанезе / Vincenzo Albanese (Zù Momma), Марчелло Маццарелла / Marcello Mazzarella (Mastro Misciu), Рафаэлла Эспозито / Raffaella Esposito (Santina)
Описание: Экранизация одноименной повести Джованни Верга / Giovanni Verga (1878).
После гибели отца в каменоломне на его место заступает сын, прозванный "Рыжим" за цвет волос. Сицилийцы верят, что рыжие люди злые. И в действительности "Рыжий" оправдывает это поверье – он тиранит тех, кто младше и слабее его. Но после потери кормильца жизнь становится полна лишений и страданий. Мать требует от него только заработанных денег, сестра не расценивает его как мужчину, способного содержать семью. Единственным объектом его внимания и наставничества становится "Лягушонок", парнишка из их же селенья, также вынужденный работать под землей…
Доп. информация: Filmbox Arthouse IPTV

Качество видео: DVB-AVC
Формат видео: MKV
Видео: AVC (H.264), 720x576@1024x576 (16:9), 25 fps, ~871 kbps avg, 0.078 bit/pixel
Аудио 1: MPEG Audio 2, 2 ch, 48 kHz, ~128.00 kbps avg - русский
Аудио 2: MPEG Audio 2, 2 ch, 48 kHz, ~128.00 kbps avg - итальянский

MediaInfo

Общее
Уникальный идентификатор : 242171234811055766195731355799375842248 (0xB6307BB82F44353C9E415A0F35240BC8)
Полное имя : F:\My Torrents 3\[apreder]Rosso_Malpelo(2007)DVB.mkv
Формат : Matroska
Версия формата : Version 2
Размер файла : 647 Мбайт
Продолжительность : 1 ч. 18 м.
Общий поток : 1150 Кбит/сек
Дата кодирования : UTC 2015-07-12 07:04:10
Программа кодирования : mkvmerge v8.1.0 ('Psychedelic Postcard') 64bit
Библиотека кодирования : libebml v1.3.1 + libmatroska v1.4.2
Attachements : cover.jpg / cover_small.jpg
Видео
Идентификатор : 1
Формат : AVC
Формат/Информация : Advanced Video Codec
Профиль формата : Main@L3
Параметр CABAC
формата : Да
Параметр ReFrames формата : 3 кадра
Идентификатор кодека : V_MPEG4/ISO/AVC
Битрейт : 871 Кбит/сек
Ширина : 720 пикселей
Высота : 576 пикселей
Соотношение сторон : 16:9
Соотношение сторон в оригинале : 16:9
Режим частоты кадров : Переменный
Частота кадров в оригинале : 25,000 кадров/сек
Стандарт вещания : Component
Цветовое пространство : YUV
Субдискретизация насыщенности : 4:2:0
Битовая глубина : 8 бит
Тип развёртки : Чересстрочная
Порядок развёртки : Верхнее поле первое
Default : Да
Forced : Нет
colour_range : Limited
Основные цвета : BT.601 PAL
Характеристики трансфера : BT.470 System B, BT.470 System G
Коэффициенты матрицы : BT.601
Аудио #1
Идентификатор : 2
Формат : MPEG Audio
Версия формата : Version 1
Профиль формата : Layer 2
Идентификатор кодека : A_MPEG/L2
Идентификатор кодека/Подсказка : MP2
Продолжительность : 1 ч. 18 м.
Вид битрейта : Постоянный
Битрейт : 128 Кбит/сек
Каналы : 2 канала
Частота : 48,0 КГц
Метод сжатия : С потерями
Задержка видео : -18 мс.
Размер потока : 72,0 Мбайт (11%)
Язык : Russian
Default : Да
Forced : Нет
Аудио #2
Идентификатор : 3
Формат : MPEG Audio
Версия формата : Version 1
Профиль формата : Layer 2
Идентификатор кодека : A_MPEG/L2
Идентификатор кодека/Подсказка : MP2
Продолжительность : 1 ч. 18 м.
Вид битрейта : Постоянный
Битрейт : 128 Кбит/сек
Каналы : 2 канала
Частота : 48,0 КГц
Метод сжатия : С потерями
Задержка видео : -18 мс.
Размер потока : 72,0 Мбайт (11%)
Язык : Italian
Default : Нет
Forced : Нет

Скриншот c названием фильма

Скриншоты


Резервные скриншоты


-[2'458]
[Профиль] [ЛС]

Создавать темы 06-Авг-2015 22:23 (спустя 23 дня)

Топик был перенесен из форума Фильмы до 2014 года в форум Фильмы до 2012 года
sergej644
 
Показать сообщения:    

Текущее время: Сегодня 09:59

Часовой пояс: GMT



Вы не можете начинать темы
Вы не можете отвечать на сообщения
Вы не можете редактировать свои сообщения
Вы не можете удалять свои сообщения
Вы не можете голосовать в опросах
Вы не можете прикреплять файлы к сообщениям
Вы не можете скачивать файлы