Рыбы-чудовища / Monster fish (18 выпусков) (Erin Buxton) [2009-2014, Документальный цикл, познавательный, HDTV 1080i, RU, EN]

 
Автор Сообщение

TorrentFilm ®

Пол:

Стаж: 2 года

Сообщений: 7741



Награды: Нет

Торрент-статистика

Создавать темы 07-Апр-2015 00:00

[Цитировать]

Рыбы-чудовища / Monster fish
Год выпуска: 2009-2014
Страна: Великобритания
Студия: NGHT
Жанр: Документальный цикл, познавательный
Продолжительность: 00:44:59
Перевод: Студийный (одноголосый закадровый)
Доп. инфо о переводе: Студия АРК•ТВ
Русские субтитры: нет
Режиссер: Erin Buxton
Описание:
Выполняя задачу по защите крупных рыб, эколог Зеб Хоган познакомил нас с самыми крупными на планете видами рыб
06.04.2015 _ добавил выпуски: 14, 15, 16, 17, 18.
перезаливаем

01. Рыбы-чудовища_Гигантский угорь_HDTV 1080i_RU_EN

Зеб Хоган отправляется на острова Океании на поиски самых крупных угрей планеты в надежде выяснить причину сокращения их численности

02. Рыбы-чудовища_Король пресных вод Австралии_HDTV 1080i_RU_EN

Зеб отправляется в Австралию и пытается узнать, каким образом в реках Северной территории умудряются сосуществовать пять крупных хищников.

03. Рыбы-чудовища_Таиландский рай_HDTV 1080i_RU_EN

Зеб отправляется в Таиланд для того, чтобы найти и определить как можно больше видов гигантских рыб-монстров.

04. Рыбы-чудовища_Загадка реки Меконг_HDTV 1080i_RU_EN

Биолог и эколог Зеб Хоган отправляется к водопаду Кон в Лаосе, важнейшему месту для мигрирующих видов рыб в бассейне реки Меконг.

05. Рыбы-чудовища_Бушующая Амазонка_HDTV 1080i_RU_EN

Трип Дженнингс и Зеб отправляются на каяках в экспедицию по Амазонке, чтобы изучить влияние человеческого
фактора на популяцию местных рыб.

06. Рыбы-чудовища_Муррейская треска_HDTV 1080i_RU_EN

Расследуя почти полное исчезновение муррейской трески, обитающей в одноименной реке, Зеб Хоган встречается с экологами и рыбаками.

07. Рыбы-чудовища_Сом-чужак_HDTV 1080i_RU_EN

У биологов есть опасение, что большое колличество сомов ставит под угрозу местные экосистемы. Зет направляется в Испанию, для того, что бы познакомится поближе с этими свирепыми хищниками.У него плохой характер и прекрасный аппетит. Рыба, созданная для того, чтобы есть. Сегодня, словно завоеватель на новой земле, легендарное существо стало чудовищем. Обыкновенные сомы невероятных размеров завоёвывают Испанию.

08. Рыбы-чудовища_Древний монстр_HDTV 1080i_RU_EN

Передача о том, как биолог Зеб Хоган проводит исследования Миссисипского веслоноса

09. Рыбы-чудовища_Захват реки_HDTV 1080i_RU_EN

Водный эколог Зеб Хоган пытается найти объяснение кажущемуся непреодолимым распространению летучего азиатского карпа в американских водоемах.

10. Рыбы-чудовища_Аллигаторова щука_HDTV 1080i_RU_EN

Зеб отправляется на поиски северо-американских речных чудовищ - которые способны прожить от 50-ти до ста лет.

11. Рыбы-чудовища_Нильский гигант_HDTV 1080i_RU_EN

Один из крупнейших водных хищников Африки - нильский окунь может достигать двух метров в длину. Сможет ли Зеб выловить этого речного монстра?

12. Рыбы-чудовища_Террор в Гималаях_HDTV 1080i_RU_EN

Зеб едет в индийские Гималаи расследовать сообщения местных жителей о том, что огромный сом якобы выслеживает людей, нападает и убивает их...

13. Рыбы-чудовища_ Камчатский улов_HDTV 1080i_RU_EN

Зеб Хоган, биолог и специалист по охране окружающей среды, отправляется на Камчатку. Это один из самых диких и малоизведанных уголков планеты. Здесь обитает такое количество видов лосося, где не найти нигде в мире. Зеб ищет ответ на вопрос, почему на Камчатке такое многообразие видов лосося.

14. Рыбы-чудовища_Амазонский электрошок_HDTV 1080i_RU_EN

Одна пресноводная рыба обладает зарядом в пять раз больше, чем электроток в домах США. Зеб Хоган едет на Амазонку в поисках электрического угря.

15. Рыбы-чудовища_Челюсти в реке_HDTV 1080i_RU_EN

Некоторые виды акул могут жить как в морской, так и в пресной воде. Зеб Хоган пытается отыскать самые крупные и редкие австралийские образцы.

16. Рыбы-чудовища_Речной волк_HDTV 1080i_RU_EN

Рыба-волк, называемая местными "хаймарой", может достигать метра в длину и якобы нападает на людей. Зеб ищет этого агрессивного гиганта.

17. Рыбы-чудовища_Самый большой в мире скат_HDTV 1080i_RU_EN

Таиландские скаты-орляки и австралийские скаты-хвостоколы, достигающие 5 метров и весящие до 590 кг, считаются крупнейшими пресноводными рыбами.

18. Рыбы-чудовища: Рыба-монстр_HDTV 1080i_RU_EN

Таиландский змееголов, который, как считается, может передвигаться по суше, недавно появился в США. Заслуживает ли он репутацию опасного монстра?
Сэмпл: http://multi-up.com/1010926
Тип релиза: HDTV 1080i
Контейнер: MKV
Видео: AVC, 1920x1080, (16:9), 25 fps, 10 800 kbps, 0.21 bit/pixel
Аудио: #1: Russian, MP2, 48 kHz, 2ch; 192 kbps
Аудио: #2: English, MP2, 48 kHz, 2ch; 192 kbps

MediaInfo

GeneralUnique ID : 220501966755372360059818221887626739592 (0xA5E32251900040C8A2CAFD4F107CFF88)Complete name : C:\Рыбы-чудовища_HDTV 1080i_RU_EN\01. Рыбы-чудовища_Гигантский угорь_HDTV 1080i_RU_EN.mkvFormat : MatroskaFormat version : Version 2File size : 3.55 GiBDuration : 44mn 27sOverall bit rate : 11.4 MbpsWriting application : Lavf53.31.100Writing library : Lavf53.31.100
VideoID : 1Format : AVCFormat/Info : Advanced Video CodecFormat profile : High@L4.0Format settings, CABAC : YesFormat settings, ReFrames : 4 framesCodec ID : V_MPEG4/ISO/AVCDuration : 44mn 27sBit rate : 10.8 MbpsWidth : 1 920 pixelsHeight : 1 080 pixelsDisplay aspect ratio : 16:9Frame rate mode : ConstantFrame rate : 25.000 fpsStandard : ComponentColor space : YUVChroma subsampling : 4:2:0Bit depth : 8 bitsScan type : InterlacedScan order : Top Field FirstBits/(Pixel*Frame) : 0.208Stream size : 3.36 GiB (95%)Default : YesForced : NoColor primaries : BT.709Transfer characteristics : BT.709Matrix coefficients : BT.709
Audio #1ID : 2Format : MPEG AudioFormat version : Version 1Format profile : Layer 2Codec ID : A_MPEG/L2Codec ID/Hint : MP2Duration : 44mn 27sBit rate mode : ConstantBit rate : 192 KbpsChannel(s) : 2 channelsSampling rate : 48.0 KHzCompression mode : LossyDelay relative to video : 1mn 5sStream size : 61.1 MiB (2%)Language : RussianDefault : YesForced : No
Audio #2ID : 3Format : MPEG AudioFormat version : Version 1Format profile : Layer 2Codec ID : A_MPEG/L2Codec ID/Hint : MP2Duration : 44mn 27sBit rate mode : ConstantBit rate : 192 KbpsChannel(s) : 2 channelsSampling rate : 48.0 KHzCompression mode : LossyStream size : 61.1 MiB (2%)Language : EnglishDefault : NoForced : No

Скриншоты

[Профиль] [ЛС]
Кто просматривает тему:

Показать сообщения:    

Текущее время: Сегодня 13:02

Часовой пояс: GMT



Вы не можете начинать темы
Вы не можете отвечать на сообщения
Вы не можете редактировать свои сообщения
Вы не можете удалять свои сообщения
Вы не можете голосовать в опросах
Вы не можете прикреплять файлы к сообщениям
Вы не можете скачивать файлы