Руфус 2 / Rufus 2 (2017) WEB-DL 1080p | D

 
Автор Сообщение

BOSS ®

Пол:

Стаж: 3 года

Сообщений: 7569

Откуда: ODESSA



Награды: 22 (Подробнее)

Top Keeper 2 (Количество: 1) Top Releaser 3 (Количество: 1) Top Seeder 3 (Количество: 1)
Торрент-статистика

Создавать темы 06-Авг-2017 10:36

[Цитировать]

Информация о фильме
Название: Руфус 2
Оригинальное название: Rufus 2
Год выхода: 2017
Жанр: комедия, семейный
Режиссер: Сэвидж Стив Холланд
В ролях: Джейс Норман, Дэвис Кливлэнд, Хейли Тджу, Джэйд Петтиджон, Кэлвин Олафсон, Уэсли Сэлтер, Амитай Мэрморштейн, Чад Райли, Лиза Дурупт, Лиллиэн Лим
О фильме:
Руфус влюбляется в новую ученицу, которая явно скрывает какой-то секрет. Мэнни и Пэйдж подозревают её в недобрых намерениях, а Руфус считает, что они неправы. В это время за волшебным амулетом Руфуса начинает охотиться таинственный злодей.

Производство: США / Pacific Bay Entertainment
Продолжительность: 00:44:51
Перевод: дублированный (Nickelodeon)
Файл
Качество: WEB-DL 1080p
Видео: MPEG-4 AVC, 1920x1080 (16:9), 23.976 fps, 4596 kbps, 0.092 bit/pixel
Аудио #1: русский, AC3 2.0, 48 kHz, 192 kbps
Аудио #2: английский, AC3 2.0, 48 kHz, 192 kbps
Субтитры: английские вшитые отключаемые

MediaInfo

Формат : Matroska
Версия формата : Version 4 / Version 2
Размер файла : 1,59 Гбайт
Продолжительность : 44 м.
Общий поток : 5081 Кбит/сек
Дата кодирования : UTC 2017-07-28 14:10:33
Программа кодирования : mkvmerge v7.9.0 ('Birds') 64bit
Библиотека кодирования : libebml v1.3.1 + libmatroska v1.4.2
DURATION : 00:44:46.696000000
NUMBER_OF_FRAMES : 1046
NUMBER_OF_BYTES : 30918
_STATISTICS_WRITING_APP : mkvmerge v9.7.1 ('Pandemonium') 64bit
_STATISTICS_WRITING_DATE_UTC : 2017-01-17 18:19:15
_STATISTICS_TAGS : BPS DURATION NUMBER_OF_FRAMES NUMBER_OF_BYTES
Видео
Идентификатор : 1
Формат : AVC
Формат/Информация : Advanced Video Codec
Профиль формата : High@L4
Параметр CABAC формата : Да
Параметр ReFrames формата : 4 кадра
Идентификатор кодека : V_MPEG4/ISO/AVC
Продолжительность : 44 м.
Битрейт : 4596 Кбит/сек
Ширина : 1920 пикселей
Высота : 1080 пикселей
Соотношение сторон : 16:9
Режим частоты кадров : Постоянный
Частота кадров : 23,976 кадра/сек
Цветовое пространство : YUV
Субдискретизация насыщенности : 4:2:0
Битовая глубина : 8 бит
Тип развёртки : Прогрессивная
Бит/(Пиксели*Кадры) : 0.092
Размер потока : 1,44 Гбайт (90%)
Библиотека кодирования : x264 core 148
Настройки программы : cabac=1 / ref=4 / deblock=1:0:0 / analyse=0x3:0x113 / me=umh / subme=10 / psy=1 / psy_rd=1.00:0.15 / mixed_ref=1 / me_range=32 / chroma_me=1 / trellis=2 / 8x8dct=1 / cqm=0 / deadzone=21,11 / fast_pskip=1 / chroma_qp_offset=-3 / threads=24 / lookahead_threads=6 / sliced_threads=0 / nr=0 / decimate=1 / interlaced=0 / bluray_compat=0 / constrained_intra=0 / bframes=3 / b_pyramid=0 / b_adapt=2 / b_bias=0 / direct=3 / weightb=1 / open_gop=0 / weightp=2 / keyint=48 / keyint_min=4 / scenecut=0 / intra_refresh=0 / rc_lookahead=48 / rc=crf / mbtree=1 / crf=19.0 / qcomp=0.75 / qpmin=10 / qpmax=51 / qpstep=4 / vbv_maxrate=5000 / vbv_bufsize=10000 / crf_max=0.0 / nal_hrd=none / filler=0 / ip_ratio=1.40 / aq=1:0.80
Язык : English
Default : Да
Forced : Нет
Аудио #1
Идентификатор : 2
Формат : AC-3
Формат/Информация : Audio Coding 3
Расширение режима : CM (complete main)
Параметр Endianness формата : Big
Идентификатор кодека : A_AC3
Продолжительность : 44 м.
Вид битрейта : Постоянный
Битрейт : 192 Кбит/сек
Каналы : 2 канала
Расположение каналов : Front: L R
Частота : 48,0 КГц
Метод сжатия : С потерями
Размер потока : 61,6 Мбайт (4%)
Язык : Russian
Default : Да
Forced : Нет
Аудио #2
Идентификатор : 3
Формат : AC-3
Формат/Информация : Audio Coding 3
Расширение режима : CM (complete main)
Параметр Endianness формата : Big
Идентификатор кодека : A_AC3
Продолжительность : 44 м.
Вид битрейта : Постоянный
Битрейт : 192 Кбит/сек
Каналы : 2 канала
Расположение каналов : Front: L R
Частота : 48,0 КГц
Метод сжатия : С потерями
Размер потока : 61,6 Мбайт (4%)
Язык : English
Default : Нет
Forced : Нет
Текст
Идентификатор : 4
Формат : UTF-8
Идентификатор кодека : S_TEXT/UTF8
Идентификатор кодека/Информация : UTF-8 Plain Text
Язык : English
Default : Да
Forced : Нет
[Профиль] [ЛС]
Показать сообщения:    

Текущее время: Сегодня 05:51

Часовой пояс: GMT



Вы не можете начинать темы
Вы не можете отвечать на сообщения
Вы не можете редактировать свои сообщения
Вы не можете удалять свои сообщения
Вы не можете голосовать в опросах
Вы не можете прикреплять файлы к сообщениям
Вы не можете скачивать файлы