Русский характер ( Александр Якимчук)[2014, Драма, криминал, HDTVRip] от Шкипер

 
Автор Сообщение

sergej644 ®

Пол:

Стаж: 4 года 11 месяцев

Сообщений: 6041

Откуда: Soviet Union



Награды: Нет

Торрент-статистика

Создавать темы 16-Июл-2015 18:51

[Цитировать]

Информация о фильме
Название: Русский характер
Год выхода: 2014
Жанр: Драма, криминал
Режиссер: Александр Якимчук
В ролях: Александр Фисенко, Сергей Никоненко, Евгений Бакалов, Наталья Мартынова, Александра Никифорова, Любовь Завадская, Кирилл Полухин, Егор Баринов, Глеб Степан Каллистов, Витас Эйзенах
О фильме:
2013 год, Украина. Военный моряк Максим Фадеев приезжает из Санкт-Петербурга в Крым, получив телеграмму о смерти деда. На полуострове прошло детство Максима, отсюда он уехал поступать в Суворовское училище, здесь живут его друзья и близкие… Максим узнает, что расположенный на берегу моря поселок терроризирует банда некоего Волощука, которого финансирует олигарх Юрий Гаджало. Цель — выжить из поселка местных жителей, снести все и построить на этом месте дорогой отель с ресторанами и причалом для катеров. Фадеев встает на защиту жителей поселка, что приводит к конфликту с милицией, закрывающей глаза на бесчинства бандитов и даже покрывающей их. Вскоре местные жители, которые были запуганы и не сопротивлялись беззаконию, начинают помогать Фадееву в его борьбе с бандой.
Страна: Россия
Студия: Триикс Медиа
Продолжительность: 01:27:41
Перевод: Не требуется
Файл
Кодек: XviD
Качество: HDTVRip
Видео: 624x352 (1.77:1), 25 fps, XviD build 73 ~1049 kbps avg, 0.19 bit/pixel
Звук: 48 kHz, MP3, 2 ch, ~128.00 kbps avg
Субтитры: На Украинскую речь
Семпл

MI

General
Complete name : D:Изготовление рипаRusskiy.harakter.2014.HDTVRip.by shkiper.avi
Format : AVI
Format/Info : Audio Video Interleave
File size : 745 MiB
Duration : 1h 27mn
Overall bit rate : 1 188 Kbps
Writing application : VirtualDubMod 1.5.10.3 | www.virtualdub-fr.org || (build 2550/release)
Writing library : VirtualDubMod build 2550/release
Video
ID : 0
Format : MPEG-4 Visual
Format profile : Advanced Simple@L5
Format settings, BVOP : 1
Format settings, QPel : No
Format settings, GMC : No warppoints
Format settings, Matrix : Custom
Codec ID : XVID
Codec ID/Hint : XviD
Duration : 1h 27mn
Bit rate : 1 050 Kbps
Width : 624 pixels
Height : 352 pixels
Display aspect ratio : 16:9
Frame rate : 25.000 fps
Color space : YUV
Chroma subsampling : 4:2:0
Bit depth : 8 bits
Scan type : Progressive
Compression mode : Lossy
Bits/(Pixel*Frame) : 0.191
Stream size : 659 MiB (88%)
Writing library : XviD 73
Audio
ID : 1
Format : MPEG Audio
Format version : Version 1
Format profile : Layer 3
Mode : Joint stereo
Mode extension : MS Stereo
Codec ID : 55
Codec ID/Hint : MP3
Duration : 1h 27mn
Bit rate mode : Constant
Bit rate : 128 Kbps
Channel(s) : 2 channels
Sampling rate : 48.0 KHz
Compression mode : Lossy
Stream size : 80.3 MiB (11%)
Alignment : Aligned on interleaves
Interleave, duration : 40 ms (1.00 video frame)
Interleave, preload duration : 504 ms
Writing library : LAME3.99r
Encoding settings : -m j -V 4 -q 2 -lowpass 17 -b 128

Скриншоты

[Профиль] [ЛС]
Показать сообщения:    

Текущее время: Сегодня 01:09

Часовой пояс: GMT



Вы не можете начинать темы
Вы не можете отвечать на сообщения
Вы не можете редактировать свои сообщения
Вы не можете удалять свои сообщения
Вы не можете голосовать в опросах
Вы не можете прикреплять файлы к сообщениям
Вы не можете скачивать файлы