Русский перевод [01-08 из 08] (2006) DVDRip-AVC от New-Team

 
Автор Сообщение

Белочка ®

Пол:

Стаж: 5 лет 1 месяц

Сообщений: 2089



Награды: 1 (Подробнее)

Girls (Количество: 1)
Торрент-статистика

Создавать темы 18-Ноя-2014 22:11

[Цитировать]

«Ему суждено стать участником грязных политических интриг, кровавого военного переворота, встретить свою любовь и найти верного друга. Но все потерять...» -Страна: Россия / НТВ-Кино
Жанр: детектив
Год выпуска: 2006
Продолжительность: 00:50:00 / серия
Перевод: Не требуется
Cубтитры: нет
Оригинальная аудиодорожка: русский
Режиссер: Александр Черняев
В ролях: Никита Зверев, Марина Черняева, Павел Новиков, Андрей Фролов, Татьяна Абрамова, Сергей Векслер, Александр Макогон, Александр Пашутин, Рамиль Сабитов, Сергей Селин...
Описание: 1985 год. Молодой военный переводчик-арабист Андрей Обнорский оказывается на практике в Народно-Демократической Республике Йемен, где работает группа советских военных советников, помогающих формировать и обучать йеменскую армию. Прямиком со студенческой скамьи юноша попадает в бурный водоворот событий — настоящая африканская жара, противостояние южан и северян некогда единого йеменского государства, политические распри в самой НДРЙ, вылившиеся в военный переворот, наконец, игры советских спецслужб. Андрей принимает участие в боевых действиях, становится свидетелем военного переворота и резни в Адене, невольно оказывается в центре истории с пропажей партии оружия, переправляемого советским руководством палестинцам транзитом через Йемен. Но здесь же, в этой раскаленной от солнца стране, Андрей встречает свою любовь и находит верного друга. Спустя несколько лет военный переводчик лейтенант Обнорский направлен в очередную командировку — в Ливию. Он хочет забыть прежние кошмары и ожидает встречи с другом по йеменской практике. Но вместо этого Андрею предстоит вести опасное расследование обстоятельств его сомнительного самоубийства и воскресить призраков прошлого. Он снова узнает многое из того, о чем, возможно, предпочел бы никогда не слышать.
-Качество: DVDRip-AVC / 2 x DVD9 R5 - лицензионные диски от компании "DVD Land"
Формат: MKV
Видео: 704x410@760x410 (1.85:1), 25.000 fps, MPEG-4 AVC ~ 1808 kbps avg, 0.251 bit/pixel
Аудио: 48 kHz, Dolby AC3, 6 ch, 448 kbps, русский

MediaInfo

General
Format : Matroska
Format version : Version 2
File size : 871 MiB
Duration : 53mn 56s
Overall bit rate : 2 258 Kbps
Encoded date : UTC 2014-11-17 17:51:50
Writing application : mkvmerge v6.1.0 ('Old Devil') built on Mar 4 2013 09:10:42
Writing library : libebml v1.3.0 + libmatroska v1.4.0
Video
ID : 1
Format : AVC
Format/Info : Advanced Video Codec
Format profile : High@L4.1
Format settings, CABAC : Yes
Format settings, ReFrames : 8 frames
Codec ID : V_MPEG4/ISO/AVC
Duration : 53mn 56s
Bit rate : 1 808 Kbps
Width : 704 pixels
Height : 410 pixels
Display aspect ratio : 1.85:1
Frame rate mode : Constant
Frame rate : 25.000 fps
Color space : YUV
Chroma subsampling : 4:2:0
Bit depth : 8 bits
Scan type : Progressive
Bits/(Pixel*Frame) : 0.251
Stream size : 681 MiB (78%)
Writing library : x264 core 130 r2273 b3065e6
Encoding settings : cabac=1 / ref=8 / deblock=1:-2:-1 / analyse=0x3:0x113 / me=umh / subme=10 / psy=1 / psy_rd=1.00:0.05 / mixed_ref=1 / me_range=32 / chroma_me=1 / trellis=2 / 8x8dct=1 / cqm=0 / deadzone=21,11 / fast_pskip=0 / chroma_qp_offset=-3 / threads=9 / lookahead_threads=1 / sliced_threads=0 / nr=0 / decimate=0 / interlaced=0 / bluray_compat=0 / constrained_intra=0 / bframes=8 / b_pyramid=2 / b_adapt=2 / b_bias=0 / direct=3 / weightb=1 / open_gop=0 / weightp=2 / keyint=250 / keyint_min=25 / scenecut=40 / intra_refresh=0 / rc=2pass / mbtree=0 / bitrate=1808 / ratetol=1.0 / qcomp=0.60 / qpmin=0 / qpmax=69 / qpstep=4 / cplxblur=20.0 / qblur=0.5 / ip_ratio=1.40 / pb_ratio=1.30 / aq=1:1.00
Default : Yes
Forced : No
Audio
ID : 2
Format : AC-3
Format/Info : Audio Coding 3
Mode extension : CM (complete main)
Format settings, Endianness : Big
Codec ID : A_AC3
Duration : 53mn 56s
Bit rate mode : Constant
Bit rate : 448 Kbps
Channel(s) : 6 channels
Channel positions : Front: L C R, Side: L R, LFE
Sampling rate : 48.0 KHz
Bit depth : 16 bits
Compression mode : Lossy
Stream size : 173 MiB (20%)
Default : Yes
Forced : No

Скриншоты:

[Профиль] [ЛС]
Показать сообщения:    

Текущее время: Сегодня 22:43

Часовой пояс: GMT



Вы не можете начинать темы
Вы не можете отвечать на сообщения
Вы не можете редактировать свои сообщения
Вы не можете удалять свои сообщения
Вы не можете голосовать в опросах
Вы не можете прикреплять файлы к сообщениям
Вы не можете скачивать файлы