Русский перевод [01-08 из 08] (2006) DVDRip от New-Team

 
Автор Сообщение

sergej644 ®

Пол:

Стаж: 4 года 11 месяцев

Сообщений: 6046

Откуда: Soviet Union



Награды: Нет

Торрент-статистика

Создавать темы 17-Ноя-2014 16:35

[Цитировать]

«Ему суждено стать участником грязных политических интриг, кровавого военного переворота, встретить свою любовь и найти верного друга. Но все потерять...» -Страна: Россия / НТВ-Кино
Жанр: детектив
Год выпуска: 2006
Продолжительность: 00:50:00 / серия
Перевод: Не требуется
Cубтитры: нет
Оригинальная аудиодорожка: русский
Режиссер: Александр Черняев
В ролях: Никита Зверев, Марина Черняева, Павел Новиков, Андрей Фролов, Татьяна Абрамова, Сергей Векслер, Александр Макогон, Александр Пашутин, Рамиль Сабитов, Сергей Селин...
Описание: 1985 год. Молодой военный переводчик-арабист Андрей Обнорский оказывается на практике в Народно-Демократической Республике Йемен, где работает группа советских военных советников, помогающих формировать и обучать йеменскую армию. Прямиком со студенческой скамьи юноша попадает в бурный водоворот событий — настоящая африканская жара, противостояние южан и северян некогда единого йеменского государства, политические распри в самой НДРЙ, вылившиеся в военный переворот, наконец, игры советских спецслужб. Андрей принимает участие в боевых действиях, становится свидетелем военного переворота и резни в Адене, невольно оказывается в центре истории с пропажей партии оружия, переправляемого советским руководством палестинцам транзитом через Йемен. Но здесь же, в этой раскаленной от солнца стране, Андрей встречает свою любовь и находит верного друга. Спустя несколько лет военный переводчик лейтенант Обнорский направлен в очередную командировку — в Ливию. Он хочет забыть прежние кошмары и ожидает встречи с другом по йеменской практике. Но вместо этого Андрею предстоит вести опасное расследование обстоятельств его сомнительного самоубийства и воскресить призраков прошлого. Он снова узнает многое из того, о чем, возможно, предпочел бы никогда не слышать.
-Качество: DVDRip / 2 x DVD9 R5 - лицензионные диски от компании "DVD Land"
Формат: AVI
Видео: 704x384 (1.85:1), 25.000 fps, XviD ~ 1800 kbps avg, 0.266 bit/pixel
Аудио: 48 kHz, Dolby AC3, 6 ch, 448 kbps, русский
Раздача от:

MediaInfo

General
Format : AVI
Format/Info : Audio Video Interleave
File size : 871 MiB
Duration : 53mn 56s
Overall bit rate : 2 258 Kbps
Writing application : VirtualDubMod 1.5.10.3 | www.virtualdub-fr.org || (build 2550/release)
Writing library : VirtualDubMod build 2550/release
Video
ID : 0
Format : MPEG-4 Visual
Format profile : Advanced Simple@L5
Format settings, BVOP : 1
Format settings, QPel : No
Format settings, GMC : No warppoints
Format settings, Matrix : Custom
Codec ID : XVID
Codec ID/Hint : XviD
Duration : 53mn 56s
Bit rate : 1 800 Kbps
Width : 704 pixels
Height : 384 pixels
Display aspect ratio : 1.85:1
Frame rate : 25.000 fps
Color space : YUV
Chroma subsampling : 4:2:0
Bit depth : 8 bits
Scan type : Progressive
Compression mode : Lossy
Bits/(Pixel*Frame) : 0.266
Stream size : 694 MiB (80%)
Writing library : XviD 1.2.1 (UTC 2008-12-04)
Audio
ID : 1
Format : AC-3
Format/Info : Audio Coding 3
Mode extension : CM (complete main)
Format settings, Endianness : Big
Codec ID : 2000
Duration : 53mn 56s
Bit rate mode : Constant
Bit rate : 448 Kbps
Channel(s) : 6 channels
Channel positions : Front: L C R, Side: L R, LFE
Sampling rate : 48.0 KHz
Bit depth : 16 bits
Compression mode : Lossy
Stream size : 173 MiB (20%)
Alignment : Split accross interleaves
Interleave, duration : 40 ms (1.00 video frame)
Interleave, preload duration : 500 ms

Скриншоты:

[Профиль] [ЛС]
Показать сообщения:    

Текущее время: Сегодня 21:32

Часовой пояс: GMT



Вы не можете начинать темы
Вы не можете отвечать на сообщения
Вы не можете редактировать свои сообщения
Вы не можете удалять свои сообщения
Вы не можете голосовать в опросах
Вы не можете прикреплять файлы к сообщениям
Вы не можете скачивать файлы