Русская Антарктида. XXI век - HDTV (Ольга Стефанова) [2015, Документальный, HDTV 1080i]

 
Автор Сообщение

TorrentFilm ®

Пол:

Стаж: 2 года

Сообщений: 7741



Награды: Нет

Торрент-статистика

Создавать темы 30-Янв-2015 00:00

[Цитировать]

Русская Антарктида. XXI век
Год выпуска: 2015
Страна: Россия, ВГТРК
Жанр: Документальный
Продолжительность: 01:26
Перевод: Не требуется
Режиссер: Ольга Стефанова
Описание: В День открытия Антарктиды экспедицией русского флота под командованием Фаддея Беллинсгаузена и Михаила Лазарева 28 января 1820 года (ровно 195 лет назад) мы показываем фильм о том, кто и как сегодня обеспечивает России право быть антарктической державой.
Пять зимовочных станций. Санно-гусеничный поезд. Снежно-ледовые аэродромы. Флагман полярной флотилии "Академик Федоров". Все это – русская Антарктида XXI века. Совершенно отдельный, особый мир, существующий по своим правилам и законам.
Каждый год на ледовый материк отправляются зимовать новые группы полярников. По 12 долгих месяцев они живут как на другой планете – в полной изоляции от Большой земли. За каждой экспедицией стоит своя история, свои герои и судьбы
Тип релиза: HDTV 1080i
Контейнер: TS
Видео: AVC, 1920x1080, 16:9, 7694 Kbps, 25fps
Аудио: MPEG Audio, CBR 224 kbps, 48 kHz, 2ch (stereo)

MediaInfo

Формат : MPEG-TSРазмер файла : 5,03 ГбайтПродолжительность : 1 ч. 26 м.Режим общего битрейта : ПеременныйОбщий поток : 8332 Кбит/сек
ВидеоИдентификатор : 69 (0x45)Идентификатор меню : 1 (0x1)Формат : AVCФормат/Информация : Advanced Video CodecПрофиль формата : High@L4.0Параметр CABAC формата : ДаПараметр ReFrames формата : 3 кадраИдентификатор кодека : 27Продолжительность : 1 ч. 26 м.Битрейт : 7694 Кбит/секШирина : 1920 пикселейВысота : 1080 пикселейСоотношение сторон : 16:9Частота кадров : 25,000 кадров/секСтандарт вещания : ComponentЦветовое пространство : YUVСубдискретизация насыщенности : 4:2:0Битовая глубина : 8 битТип развёртки : ЧересстрочнаяПорядок развёртки : Верхнее поле первоеБит/(Пиксели*Кадры) : 0.148Размер потока : 4,64 Гбайт (92%)Основные цвета : BT.709Характеристики трансфера : BT.709Коэффициенты матрицы : BT.709
АудиоИдентификатор : 68 (0x44)Идентификатор меню : 1 (0x1)Формат : MPEG AudioВерсия формата : Version 1Профиль формата : Layer 2Идентификатор кодека : 3Продолжительность : 1 ч. 26 м.Вид битрейта : ПостоянныйБитрейт : 224 Кбит/секКаналы : 2 каналаЧастота : 48,0 КГцМетод сжатия : С потерямиРазмер потока : 138 Мбайт (3%)Язык : Russian

Скриншоты

[Профиль] [ЛС]
Показать сообщения:    

Текущее время: Сегодня 16:40

Часовой пояс: GMT



Вы не можете начинать темы
Вы не можете отвечать на сообщения
Вы не можете редактировать свои сообщения
Вы не можете удалять свои сообщения
Вы не можете голосовать в опросах
Вы не можете прикреплять файлы к сообщениям
Вы не можете скачивать файлы