Русалочка / The Little Mermaid (1989) BDRip [720p]

 
Автор Сообщение

sergej644 ®

Пол:

Стаж: 4 года 11 месяцев

Сообщений: 6041

Откуда: Soviet Union



Награды: Нет

Торрент-статистика

Создавать темы 13-Янв-2015 23:20

[Цитировать]

-Русалочка / The Little Mermaid (1989) BDRip [720p]
« Love has no boundaries »
- Производство: США | Walt Disney Pictures, Silver Screen Partners IV
Жанр: Мультфильм, Мюзикл, Фэнтези, Мелодрама, Семейный
Режиссер: Рон Клементс, Джон Маскер
Продюсер: Ховард Эшман, Джон Маскер, Морин Донли
Актеры: Джоди Бенсон, Пэт Кэрролл, Рене Обержонуа, Кристофер Дэниэл Барнс, Пэдди Эдвардс, Бадди Хэкетт, Джейсон Марин, Кеннет Марс, Эди МакКлёрг, Уилл Райан, Бен Райт
Описание фильма: Таинственные глубины моря хранят немало тайн, а обитатели океана могут рассказать множество удивительных историй. И самой невероятной из них была и остаётся история русалочки Ариэль. Дочь могущественного царя подводного мира Тритона, она однажды влюбляется в прекрасного и мужественного принца. Но разве они могут быть вместе - земной человек и морская дева? Однако настоящие чувства преодолевают любые преграды. Ради своей любви Ариэль готова пойти на всё. Даже если для обретения своего счастья ей навсегда придётся покинуть родной океан и навеки стать земной девушкой…

Возраст: 0+ Для любой зрительской аудитории
Рейтинг MPAA: G Нет возрастных ограничений
Продолжительность: 01:22:49
Качество видео: BDRip [720p]
Перевод: Профессиональный дублированный, профессиональный двухголосый, авторский
Вид субтитров: Вшитые отключаемые
Язык субтитров: Русский (Forced, Full), английский
Видео: MPEG-4 AVC/H.264, 5000 Kbps, 1280 x 720
Аудио 1: Русский AC3 5.1, 640 Kbps, 48.0 KHz (Полное дублирование) Blu-ray CEE
Аудио 2: Русский AC3 5.1, 448 Kbps, 48.0 KHz (Двухголосый закадровый) П. Гланц и И. Королёва
Аудио 3: Русский AC3 5.1, 448 Kbps, 48.0 KHz (Одноголосый закадровый) А. Михалёв
Аудио 4: Русский AC3 2.0, 192 Kbps, 48.0 KHz (Одноголосый закадровый) А. Гаврилов
Аудио 5: Русский AC3 2.0, 192 Kbps, 48.0 KHz (Одноголосый закадровый) Ю. Толбин
Аудио 6: Английский DTS 5.1, 1509 Kbps, 48.0 KHz (Оригинал)

Blu-ray

MediaInfo

Общее
Полное имя : Русалочка.mkv
Формат : Matroska
Версия формата : Version 1
Размер файла : 4,88 Гбайт
Продолжительность : 1 ч. 22 м.
Общий поток : 8433 Кбит/сек
Дата кодирования : UTC 2015-01-04 12:26:22
Программа кодирования : mkvmerge v2.4.1 ('Use Me') built on Dec 5 2008 18:30:05
Библиотека кодирования : libebml v0.7.7 + libmatroska v0.8.1
Видео
Идентификатор : 1
Формат : AVC
Формат/Информация : Advanced Video Codec
Профиль формата : [url=mailto:High@L4.1]High@L4.1[/url]
Параметр CABAC формата : Да
Параметр ReFrames формата : 9 кадров
Идентификатор кодека : V_MPEG4/ISO/AVC
Продолжительность : 1 ч. 22 м.
Битрейт : 5000 Кбит/сек
Ширина : 1280 пикселей
Высота : 720 пикселей
Соотношение сторон : 16:9
Режим частоты кадров : Постоянный
Частота кадров : 23,976 кадра/сек
Цветовое пространство : YUV
Субдискретизация насыщенности : 4:2:0
Битовая глубина : 8 бит
Тип развёртки : Прогрессивная
Бит/(Пиксели*Кадры) : 0.226
Размер потока : 2,80 Гбайт (57%)
Заголовок : Русалочка (1989)
Библиотека кодирования : x264 core 133 r2334 a3ac64b
Настройки программы : cabac=1 / ref=9 / deblock=1:-3:-3 / analyse=0x3:0x133 / me=umh / subme=10 / psy=1 / psy_rd=1.00:0.10 / mixed_ref=1 / me_range=48 / chroma_me=1 / trellis=2 / 8x8dct=1 / cqm=0 / deadzone=21,11 / fast_pskip=0 / chroma_qp_offset=-3 / threads=6 / lookahead_threads=1 / sliced_threads=0 / nr=0 / decimate=1 / interlaced=0 / bluray_compat=0 / constrained_intra=0 / bframes=5 / b_pyramid=2 / b_adapt=2 / b_bias=0 / direct=3 / weightb=1 / open_gop=0 / weightp=2 / keyint=240 / keyint_min=22 / scenecut=40 / intra_refresh=0 / rc_lookahead=40 / rc=2pass / mbtree=1 / bitrate=5000 / ratetol=1.0 / qcomp=0.60 / qpmin=10 / qpmax=51 / qpstep=4 / cplxblur=20.0 / qblur=0.5 / ip_ratio=1.40 / aq=1:1.00
Язык : English
Аудио #1
Идентификатор : 2
Формат : AC-3
Формат/Информация : Audio Coding 3
Расширение режима : CM (complete main)
Параметр Endianness формата : Big
Идентификатор кодека : A_AC3
Продолжительность : 1 ч. 22 м.
Вид битрейта : Постоянный
Битрейт : 640 Кбит/сек
Каналы : 6 каналов
Расположение каналов : Front: L C R, Side: L R, LFE
Частота : 48,0 КГц
Битовая глубина : 16 бит
Метод сжатия : С потерями
Размер потока : 379 Мбайт (8%)
Заголовок : AC3 (Дублированный) Blu-ray CEE
Язык : Russian
Аудио #2
Идентификатор : 3
Формат : AC-3
Формат/Информация : Audio Coding 3
Расширение режима : CM (complete main)
Параметр Endianness формата : Big
Идентификатор кодека : A_AC3
Продолжительность : 1 ч. 22 м.
Вид битрейта : Постоянный
Битрейт : 448 Кбит/сек
Каналы : 6 каналов
Расположение каналов : Front: L C R, Side: L R, LFE
Частота : 48,0 КГц
Битовая глубина : 16 бит
Метод сжатия : С потерями
Размер потока : 265 Мбайт (5%)
Заголовок : AC3 (Двухголосый) П. Гланц и И. Королёва
Язык : Russian
Аудио #3
Идентификатор : 4
Формат : AC-3
Формат/Информация : Audio Coding 3
Расширение режима : CM (complete main)
Параметр Endianness формата : Big
Идентификатор кодека : A_AC3
Продолжительность : 1 ч. 22 м.
Вид битрейта : Постоянный
Битрейт : 448 Кбит/сек
Каналы : 6 каналов
Расположение каналов : Front: L C R, Side: L R, LFE
Частота : 48,0 КГц
Битовая глубина : 16 бит
Метод сжатия : С потерями
Размер потока : 265 Мбайт (5%)
Заголовок : AC3 (Одноголосый) А. Михалёв
Язык : Russian
Аудио #4
Идентификатор : 5
Формат : AC-3
Формат/Информация : Audio Coding 3
Расширение режима : CM (complete main)
Параметр Endianness формата : Big
Идентификатор кодека : A_AC3
Продолжительность : 1 ч. 22 м.
Вид битрейта : Постоянный
Битрейт : 192 Кбит/сек
Каналы : 2 канала
Расположение каналов : Front: L R
Частота : 48,0 КГц
Битовая глубина : 16 бит
Метод сжатия : С потерями
Размер потока : 114 Мбайт (2%)
Заголовок : AC3 (Одноголосый) А. Гаврилов
Язык : Russian
Аудио #5
Идентификатор : 6
Формат : AC-3
Формат/Информация : Audio Coding 3
Расширение режима : CM (complete main)
Параметр Endianness формата : Big
Идентификатор кодека : A_AC3
Продолжительность : 1 ч. 22 м.
Вид битрейта : Постоянный
Битрейт : 192 Кбит/сек
Каналы : 2 канала
Расположение каналов : Front: L R
Частота : 48,0 КГц
Битовая глубина : 16 бит
Метод сжатия : С потерями
Размер потока : 114 Мбайт (2%)
Заголовок : AC3 (Одноголосый) Ю. Толбин
Язык : Russian
Аудио #6
Идентификатор : 7
Формат : DTS
Формат/Информация : Digital Theater Systems
Режим : 16
Параметр Endianness формата : Big
Идентификатор кодека : A_DTS
Продолжительность : 1 ч. 22 м.
Вид битрейта : Постоянный
Битрейт : 1509 Кбит/сек
Каналы : 6 каналов
Расположение каналов : Front: L C R, Side: L R, LFE
Частота : 48,0 КГц
Битовая глубина : 24 бит
Метод сжатия : С потерями
Размер потока : 894 Мбайт (18%)
Заголовок : DTS (Оригинал)
Язык : English
Текст #1
Идентификатор : 8
Формат : UTF-8
Идентификатор кодека : S_TEXT/UTF8
Идентификатор кодека/Информация : UTF-8 Plain Text
Заголовок : Русские (Форсированные)
Язык : Russian
Текст #2
Идентификатор : 9
Формат : UTF-8
Идентификатор кодека : S_TEXT/UTF8
Идентификатор кодека/Информация : UTF-8 Plain Text
Заголовок : Русские
Язык : Russian
Текст #3
Идентификатор : 10
Формат : UTF-8
Идентификатор кодека : S_TEXT/UTF8
Идентификатор кодека/Информация : UTF-8 Plain Text
Заголовок : Английские
Язык : English

Дополнительно

* Мультфильм установил абсолютный рекорд по продажам среди коллекционных «платиновых» изданий.
* Было использовано другое новшество того времени: живые актёры были отсняты на камеру для помощи аниматорам.
* Режиссёр настоял на том, чтобы каждый пузырёк воздуха был нарисован вручную, а их больше 1 миллиона, что требовало большого количества аниматоров и художников. Для этого Дисней обратился к анимационной студии в Пекине (Китай).
* На момент выхода фильма он был рекордсменом по использованию различных анимационных эффектов. Было использованы 1 тыс. различных цветов и 1100 фонов. В общей сложности художники сделали более 1 миллиона рисунков.
* Полное имя краба Себастьяна: Хоратайо Зэлониус Игнатиус Крустатайоус Себастьян.
* Мультфильм был адаптирован под бродвейский мюзикл в 2007 году.
* Персонажи из мультфильма использовались в акции Национального фонда морского наследия (NMSF) и Национальной администрации США по океанографии и атмосфере (NOAA), которая была направлена на привлечение внимания к проблеме негативного техногенного и антропогенного воздействия на экосистему мирового океана.
* В мультфильме можно заметить Гуфи (3:30 — в левом нижнем углу, среди толпы), также рядом с ним стоят Микки Маус и Дональд Дак.
* В сцене свадьбы, завершающей фильм, впервые были использованы цифровые технологии.
* Сцена, в которой говорится, что Урсула — тетя Ариель, была вырезана.
* Имя девушки, в которую превратилась Урсула — Ванесса.
Скриншоты:
Время раздачи: С 9:00 до 21:00
[Профиль] [ЛС]
Показать сообщения:    

Текущее время: Сегодня 08:30

Часовой пояс: GMT



Вы не можете начинать темы
Вы не можете отвечать на сообщения
Вы не можете редактировать свои сообщения
Вы не можете удалять свои сообщения
Вы не можете голосовать в опросах
Вы не можете прикреплять файлы к сообщениям
Вы не можете скачивать файлы