Русалочка (1976) DVDRip [H.264]

 
Автор Сообщение

sergej644 ®

Пол:

Стаж: 4 года 11 месяцев

Сообщений: 6042

Откуда: Soviet Union



Награды: Нет

Торрент-статистика

Создавать темы 17-Ноя-2014 21:14

[Цитировать]

-Русалочка (1976) DVDRip [H.264]- Год выпуска: 1976
Жанр: Сказка, Семейный
Продолжительность: 01:17:51
Качество видео: DVDRip [H.264]
Описание фильма:
«Русалочка» — по мотивам сказки Ганса Христиана Андерсена.
Маленькая Русалочка полюбила Принца, однажды спасённого ею во время шторма. Ради этой любви Русалочка пожертвовала многим: она не побоялась покинуть свой дом, вступила в сделку со злой колдуньей. Колдунья, используя различные магические заклятия в обмен на прекрасные волосы Русалочки, сотворила ей вместо рыбьего хвоста человеческие ноги и сделала так, чтобы Русалочка смогла ходить и жить на земле. Через все эти испытания прошла маленькая Русалочка только ради одного — быть рядом с любимым.
Режиссер: Владимир Бычков
Актеры: Вика Новикова, Валентин Никулин, Галина Артемова, Юрий Сенкевич, Галина Волчек, Стефан Илиев, Михаил Пуговкин, Светлана Моисеенко, Маргарита Чудинова, Стефан Пейчев, Михаил Янушкевич, Андрей Файт, Юлий Файт

Видеокодек: MPEG-4 AVC/H.264
Битрейт видео: ~2 224 Kbps
Размер кадра: 718@765x576
Аудиокодек: AC3 5.1
Битрейт аудио: 448 kbps
Язык субтитров: русские, английские
Вид субтитров: вшитые - отключаемые

MediaInfo:

Общее
Уникальный идентификатор : 178306417826680946001113339109537193672 (0x86249122C68A09DB9CF096949DC39EC8)
Полное имя : E:\Сказки, мультики\Русалочка_1976\Русалочка_1976.mkv
Формат : Matroska
Версия формата : Version 2
Размер файла : 1,45 Гбайт
Продолжительность : 1 ч. 17 м.
Общий поток : 2674 Кбит/сек
Название фильма : «Русалочка»
Дата кодирования : UTC 2014-11-02 17:24:05
Программа кодирования : mkvmerge v6.2.0 ('Promised Land') built on Apr 28 2013 12:22:01
Библиотека кодирования : libebml v1.3.0 + libmatroska v1.4.0
Примечание : DVDRip-AVC
Originally released : August 22nd 2014
Encoded by : george$t®
Видео
Идентификатор : 1
Формат : AVC
Формат/Информация : Advanced Video Codec
Профиль формата : [url=mailto:High@L4.1]High@L4.1[/url]
Параметр CABAC формата : Да
Параметр ReFrames формата : 16 кадров
Идентификатор кодека : V_MPEG4/ISO/AVC
Продолжительность : 1 ч. 17 м.
Битрейт : 2224 Кбит/сек
Ширина : 718 пикселей
Высота : 576 пикселей
Соотношение сторон : 4:3
Соотношение сторон в оригинале : 4:3
Режим частоты кадров : Постоянный
Частота кадров : 25,000 кадров/сек
Цветовое пространство : YUV
Субдискретизация насыщенности : 4:2:0
Битовая глубина : 8 бит
Тип развёртки : Прогрессивная
Бит/(Пиксели*Кадры) : 0.215
Размер потока : 1,18 Гбайт (81%)
Заголовок : Русалочка.1976 (Topmost)
Библиотека кодирования : x264 core 142 r2409 d6b4e63
Настройки программы : cabac=1 / ref=16 / deblock=1:-2:-2 / analyse=0x3:0x133 / me=umh / subme=11 / psy=1 / psy_rd=1.00:0.10 / mixed_ref=1 / me_range=48 / chroma_me=1 / trellis=2 / 8x8dct=1 / cqm=0 / deadzone=21,11 / fast_pskip=0 / chroma_qp_offset=-3 / threads=12 / lookahead_threads=3 / sliced_threads=0 / nr=0 / decimate=0 / interlaced=0 / bluray_compat=0 / constrained_intra=0 / bframes=16 / b_pyramid=2 / b_adapt=2 / b_bias=0 / direct=3 / weightb=1 / open_gop=0 / weightp=2 / keyint=250 / keyint_min=25 / scenecut=40 / intra_refresh=0 / rc_lookahead=60 / rc=2pass / mbtree=1 / bitrate=2224 / ratetol=1.0 / qcomp=0.70 / qpmin=0 / qpmax=32 / qpstep=4 / cplxblur=20.0 / qblur=0.5 / vbv_maxrate=50000 / vbv_bufsize=62500 / nal_hrd=none / filler=0 / ip_ratio=1.35 / aq=1:0.90
Язык : Russian
Default : Да
Forced : Нет
Основные цвета : BT.601 PAL
Характеристики трансфера : BT.470 System B, BT.470 System G
Коэффициенты матрицы : BT.601
Аудио
Идентификатор : 2
Формат : AC-3
Формат/Информация : Audio Coding 3
Расширение режима : CM (complete main)
Параметр Endianness формата : Big
Идентификатор кодека : A_AC3
Продолжительность : 1 ч. 17 м.
Вид битрейта : Постоянный
Битрейт : 448 Кбит/сек
Каналы : 6 каналов
Расположение каналов : Front: L C R, Side: L R, LFE
Частота : 48,0 КГц
Битовая глубина : 16 бит
Метод сжатия : С потерями
Размер потока : 249 Мбайт (17%)
Заголовок : AC-3, 48 Khz, 6 ch, 448 Kbps
Язык : Russian
Default : Да
Forced : Нет
Текст #1
Идентификатор : 3
Формат : UTF-8
Идентификатор кодека : S_TEXT/UTF8
Идентификатор кодека/Информация : UTF-8 Plain Text
Заголовок : SRT
Язык : Russian
Default : Да
Forced : Нет
Текст #2
Идентификатор : 4
Формат : UTF-8
Идентификатор кодека : S_TEXT/UTF8
Идентификатор кодека/Информация : UTF-8 Plain Text
Заголовок : SRT
Язык : English
Default : Нет
Forced : Нет

Рецензия, отзыв о фильме

Это замечательный детский фильм, который стоит посмотреть всей семьей. Это — грустное прощание с детской наивностью, которое не заставит плакать, но многому научит.
Скриншоты: Время раздачи: 24/7 до 5 скачавших
[Профиль] [ЛС]
Показать сообщения:    

Текущее время: Сегодня 16:22

Часовой пояс: GMT



Вы не можете начинать темы
Вы не можете отвечать на сообщения
Вы не можете редактировать свои сообщения
Вы не можете удалять свои сообщения
Вы не можете голосовать в опросах
Вы не можете прикреплять файлы к сообщениям
Вы не можете скачивать файлы