Русалка / Мамула / Mamula / Nymph (Милан Тодорович / Milan Todorovic) [2014, Сербия, ужасы, фэнтези, HDRip-AVC] DVO (den904 & DeadSno)

 
Автор Сообщение

sergej644 ®

Пол:

Стаж: 4 года 11 месяцев

Сообщений: 6046

Откуда: Soviet Union



Награды: Нет

Торрент-статистика

Создавать темы 03-Сен-2014 21:18

[Цитировать]

Русалка / Мамула / Mamula / Nymph
Страна: Сербия
Жанр: ужасы, фэнтези
Год выпуска: 2014
Продолжительность: 01:34:13
Перевод: Любительский (двухголосый закадровый) den904 & DeadSno
Cубтитры: нет
Оригинальная аудиодорожка: нет
Режиссер: Милан Тодорович / Milan Todorovic
В ролях: Кристина Клебе, Франко Неро, Наталия Гуслистая, Драган Мичанович, Миодраг Крстович, Слободан Стефанович, Елена Ракочевич, София Ражович, Зорана Костич Обрадович, Янко Чекич.
Описание: Две американки приезжают к своему однокурснику из колледжа на отдых в Черногорию. Впереди ждет весёлый отдых и беззаботная неделя, как говорится - солнце, море, пляж. Но однажды, проплывая мимо загадочного острова-крепости Мамула, они решают заглянуть туда. Но у Мамулы свои страшные секреты. Остров не совсем необитаем. И встреча с его обитателями несёт неминуемую смерть, ведь их голоса поют для тебя страшную и прекрасную песню ужаса и зовут прямо в ад...


Качество видео: HDRip-AVC / Mamyl4.2014.L2.BDRip.720
Формат видео: MKV
Видео: MPEG-4 AVC Video / 2 023 Кбит/сек / 896x504 / 24.000 / 16:9 / High Profile 3.2
Аудио: AC3 / Dolby Digital Audio / 2.0 / 48 kHz / 192 kbps |den904 & DeadSno|

MediaInfo

[code]
General
Unique ID                                : 194312642584762721865924168957327449012 (0x922F40F2013D8F1F8383B81CC1761BB4)
Complete name                            : Mamula.2014.HDRip-AVC_[torrentfilm.net].mkv
Format                                   : Matroska
Format version                           : Version 4 / Version 2
File size                                : 1.46 GiB
Duration                                 : 1h 34mn
Overall bit rate                         : 2 213 Kbps
Movie name                               : Mamula.2014
Encoded date                             : UTC 2014-09-03 18:33:53
Writing application                      : mkvmerge v7.1.0 ('Good Love') 64bit built on Jul 27 2014 13:06:55
Writing library                          : libebml v1.3.0 + libmatroska v1.4.1
DURATION                                 : 01:34:13.952000000
NUMBER_OF_FRAMES                         : 176686
NUMBER_OF_BYTES                          : 135694848
_STATISTICS_WRITING_APP                  : mkvmerge v7.1.0 ('Good Love') 64bit built on Jul 27 2014 13:06:55
_STATISTICS_WRITING_DATE_UTC             : 2014-09-03 18:33:53
_STATISTICS_TAGS                         : BPS DURATION NUMBER_OF_FRAMES NUMBER_OF_BYTES
Video
ID                                       : 1
Format                                   : AVC
Format/Info                              : Advanced Video Codec
Format profile                           : High@L3.2
Format settings, CABAC                   : Yes
Format settings, ReFrames                : 10 frames
Codec ID                                 : V_MPEG4/ISO/AVC
Duration                                 : 1h 34mn
Bit rate                                 : 2 023 Kbps
Width                                    : 896 pixels
Height                                   : 504 pixels
Display aspect ratio                     : 16:9
Frame rate mode                          : Constant
Frame rate                               : 24.000 fps
Color space                              : YUV
Chroma subsampling                       : 4:2:0
Bit depth                                : 8 bits
Scan type                                : Progressive
Bits/(Pixel*Frame)                       : 0.187
Stream size                              : 1.30 GiB (89%)
Title                                    : Mamula.2014.HDRip-AVC_[torrentfilm.net]
Writing library                          : x264 core 142 r2431 ac76440
Encoding settings                        : cabac=1 / ref=10 / deblock=1:-2:-1 / analyse=0x3:0x133 / me=umh / subme=11 / psy=1 / psy_rd=0.95:0.05 / mixed_ref=1 / me_range=48 / chroma_me=1 / trellis=2 / 8x8dct=1 / cqm=0 / deadzone=21,11 / fast_pskip=0 / chroma_qp_offset=-3 / threads=6 / lookahead_threads=1 / sliced_threads=0 / nr=0 / decimate=1 / interlaced=0 / bluray_compat=0 / constrained_intra=0 / bframes=9 / b_pyramid=2 / b_adapt=2 / b_bias=0 / direct=3 / weightb=1 / open_gop=0 / weightp=2 / keyint=240 / keyint_min=24 / scenecut=40 / intra_refresh=0 / rc_lookahead=60 / rc=2pass / mbtree=1 / bitrate=2023 / ratetol=1.0 / qcomp=0.60 / qpmin=0 / qpmax=69 / qpstep=4 / cplxblur=20.0 / qblur=0.5 / vbv_maxrate=20000 / vbv_bufsize=20000 / nal_hrd=none / filler=0 / ip_ratio=1.40 / aq=2:0.90
Language                                 : Serbian
Default                                  : Yes
Forced                                   : No
Matrix coefficients                      : BT.709
Audio
ID                                       : 2
Format                                   : AC-3
Format/Info                              : Audio Coding 3
Mode extension                           : CM (complete main)
Format settings, Endianness              : Big
Codec ID                                 : A_AC3
Duration                                 : 1h 34mn
Bit rate mode                            : Constant
Bit rate                                 : 192 Kbps
Channel(s)                               : 2 channels
Channel positions                        : Front: L R
Sampling rate                            : 48.0 KHz
Bit depth                                : 16 bits
Compression mode                         : Lossy
Stream size                              : 129 MiB (9%)
Title                                    : Любительский (двухголосый закадровый) den904 & DeadSno
Language                                 : Russian
Default                                  : Yes
Forced                                   : No
Menu
00:00:00.000                             : en:00:00:00.000
00:06:46.500                             : en:00:06:46.500
00:13:23.041                             : en:00:13:23.041
00:21:20.041                             : en:00:21:20.041
00:28:54.375                             : en:00:28:54.375
00:37:50.583                             : en:00:37:50.583
00:48:29.666                             : en:00:48:29.666
00:55:12.541                             : en:00:55:12.541
01:02:28.416                             : en:01:02:28.416
01:10:20.416                             : en:01:10:20.416
01:19:28.041                             : en:01:19:28.041
01:29:03.000                             : en:01:29:03.000

Скриншоты

--
[Профиль] [ЛС]
Показать сообщения:    

Текущее время: Сегодня 19:37

Часовой пояс: GMT



Вы не можете начинать темы
Вы не можете отвечать на сообщения
Вы не можете редактировать свои сообщения
Вы не можете удалять свои сообщения
Вы не можете голосовать в опросах
Вы не можете прикреплять файлы к сообщениям
Вы не можете скачивать файлы