Румпельштильцхен / Rumpelstilzchen (Анди Нисснер / Andi Niessner) [2007, Австрия, фэнтези, фильм-сказка, HDTVRip] MVO (компания "Игмар") + Original Ger

 
Автор Сообщение

painkiller ®

Стаж: 2 года 3 месяца

Сообщений: 582



Награды: Нет

Торрент-статистика

Создавать темы 15-Авг-2014 10:17

[Цитировать]

Румпельштильцхен / Rumpelstilzchen
Страна: Австрия
Жанр: Фэнтези, фильм-сказка
Год выпуска: 2007
Продолжительность: 01:20:19
Перевод: Профессиональный (многоголосый закадровый) компания "Игмар"
Cубтитры: нет
Оригинальная аудиодорожка: немецкий
Режиссер: Анди Нисснер / Andi Niessner
В ролях: Катарина Тальбах, Грегори Борлейн, Анна Бёгер, Мари-Кристине Фридрих, Себастьян Фишер, Эрих Шлайер, Фритц Эггер, Анна Бёгер, Андреас Шмидт, Свен Пиппиг, Фридерике Паш, Георг Фридрих, Беттина Хауэншильд
Описание: Экранизация сказки братьев Гримм. Однажды король услышал от мельника, что его дочь Лиза способна прясть золото из соломы. Государь потребовал девушку во дворец, чтобы убедиться в ее сказочных способностях, но бедная Лиза не могла превратить солому в золото. На помощь ей пришел загадочный карлик, который пообещал раздобыть золотую пряжу, но взамен девушка должна будет отдать ему своего первенца. В отчаянии она согласилась. Лиза становится невестой принца Морица, затем молодожены играют пышную свадьбу, но после рождения их ребенка карлик возвращается за своей наградой...
Доп. информация: Русская дорога из моей личной коллекции. Работа со звуком благодарю alex7691
Сэмпл: http://multi-up.com/960815
Качество видео: HDTVRip
Источник: Rumpelstilzchen.2007.GERMAN.WS.720p.HDTV.x264-aWake
Формат видео: AVI
Видео: XviD build 50, 720x400 (16:9), 25.000 fps, 1710 kbps avg
Аудио: Russian AC3 Dolby Digital, 48 kHz, 2/0 (L,R) ch, 192.00 kbps avg
Аудио 2: German AC3 Dolby Digital, 48 kHz, 2/0 (L,R) ch, 192.00 kbps avg

MediaInfo

G:\Rumpelstilzchen.2007\Rumpelstilzchen_2007.HDTVRip.Rus.avi
Format : AVI
Format/Info : Audio Video Interleave
File size : 1.18 GiB
Duration : 1h 20mn
Overall bit rate : 2 111 Kbps
Writing application : VirtualDubModRus 1.5.10.2 (build 2542/release)
Writing library : VirtualDubMod build 2542/release
Video
ID : 0
Format : MPEG-4 Visual
Format profile : Advanced Simple@L5
Format settings, BVOP : 2
Format settings, QPel : No
Format settings, GMC : No warppoints
Format settings, Matrix : Default (MPEG)
Codec ID : XVID
Codec ID/Hint : XviD
Duration : 1h 20mn
Bit rate : 1 712 Kbps
Width : 720 pixels
Height : 400 pixels
Display aspect ratio : 16:9
Frame rate : 25.000 fps
Color space : YUV
Chroma subsampling : 4:2:0
Bit depth : 8 bits
Scan type : Progressive
Compression mode : Lossy
Bits/(Pixel*Frame) : 0.238
Stream size : 983 MiB (81%)
Writing library : XviD 73
Audio #1
ID : 1
Format : AC-3
Format/Info : Audio Coding 3
Mode extension : CM (complete main)
Format settings, Endianness : Big
Codec ID : 2000
Duration : 1h 20mn
Bit rate mode : Constant
Bit rate : 192 Kbps
Channel count : 2 channels
Channel positions : Front: L R
Sampling rate : 48.0 KHz
Bit depth : 16 bits
Compression mode : Lossy
Stream size : 110 MiB (9%)
Alignment : Split accross interleaves
Interleave, duration : 40 ms (1.00 video frame)
Interleave, preload duration : 500 ms
Audio #2
ID : 2
Format : AC-3
Format/Info : Audio Coding 3
Mode extension : CM (complete main)
Format settings, Endianness : Big
Codec ID : 2000
Duration : 1h 20mn
Bit rate mode : Constant
Bit rate : 192 Kbps
Channel count : 2 channels
Channel positions : Front: L R
Sampling rate : 48.0 KHz
Bit depth : 16 bits
Compression mode : Lossy
Stream size : 110 MiB (9%)
Alignment : Split accross interleaves
Interleave, duration : 40 ms (1.00 video frame)
Interleave, preload duration : 500 ms

Скриншот c названием фильма

Скриншоты

[Профиль] [ЛС]

Создавать темы 06-Авг-2015 23:11 (спустя 11 месяцев 22 дня)

Топик был перенесен из форума Фильмы до 2014 года в форум Фильмы до 2012 года
sergej644
 
Кто просматривает тему:

Показать сообщения:    

Текущее время: Сегодня 20:09

Часовой пояс: GMT



Вы не можете начинать темы
Вы не можете отвечать на сообщения
Вы не можете редактировать свои сообщения
Вы не можете удалять свои сообщения
Вы не можете голосовать в опросах
Вы не можете прикреплять файлы к сообщениям
Вы не можете скачивать файлы