Россия и Китай. Сердце Евразии (Алексей Денисов) [2015, Документальный, HDTV 720p]

 
Автор Сообщение

TorrentFilm ®

Пол:

Стаж: 1 год 11 месяцев

Сообщений: 7741



Награды: Нет

Торрент-статистика

Создавать темы 12-Май-2015 00:04

[Цитировать]

Россия и Китай. Сердце Евразии- Год выпуска: 2015
Страна: Россия
Студия: Россия HD
Жанр: Документальный
Продолжительность: 0:44:08
Автор сценария и режиссер: Алексей Денисов-Описание: Китайская цивилизация – одна из древнейших на нашей планете. Ей больше пяти тысяч лет. В области науки и технологий древний Китай не знал себе равных. В IV веке до нашей эры китайцы изобрели компас, о котором европейцы узнали только через полторы тысячи лет; в IX веке они придумали порох; во II веке в Китае была изобретена бумага. Книгопечатание появилось там на 600 лет раньше, чем в Европе. Из Поднебесной пришли к нам механические часы, спиннинг, зонтик, спички, фарфор и шелк.-Автор рипа: lrn
Автор записи: Alexin29
Сэмпл: sendfile-Тип релиза: HDTV 720p
Контейнер: MKV
Видео: 1280x720 (16:9), 25,000 fps, H264, ~4000 kbps avg, ~0.174 bit/pixel
Аудио: 48 kHz, AC3 Dolby Digital, 2/0 (L,R) ch, ~192.00 kbps avg-

MediaInfo

GeneralUnique ID : 221868516239369439679019969195420796943 (0xA6EA5268F858FB3490722CF5071DC80F)Complete name : E:\uTorrent.Temp\Temp\Rossiya.i.Kitay.Serdce.Evrazii.2015.HDTV.720p.x264-lrn.mkvFormat : MatroskaFormat version : Version 4 / Version 2File size : 1.29 GiBDuration : 44mn 8sOverall bit rate : 4 194 KbpsMovie name : Rossiya.i.Kitay.Serdce.Evrazii.2015.HDTV.720p.x264-lrnEncoded date : UTC 2010-02-22 21:41:31Writing application : mkvmerge v5.9.0 ('On The Loose') built on Dec 9 2012 15:37:01Writing library : libebml v1.3.0 + libmatroska v1.4.0
VideoID : 1Format : AVCFormat/Info : Advanced Video CodecFormat profile : High@L4.1Format settings, CABAC : YesFormat settings, ReFrames : 8 framesCodec ID : V_MPEG4/ISO/AVCDuration : 44mn 8sBit rate : 4 000 KbpsWidth : 1 280 pixelsHeight : 720 pixelsDisplay aspect ratio : 16:9Frame rate mode : ConstantFrame rate : 25.000 fpsColor space : YUVChroma subsampling : 4:2:0Bit depth : 8 bitsScan type : ProgressiveBits/(Pixel*Frame) : 0.174Stream size : 1.21 GiB (93%)Writing library : x264 core 142 r2479 dd79a61Encoding settings : cabac=1 / ref=8 / deblock=1:-3:-3 / analyse=0x3:0x113 / me=umh / subme=9 / psy=1 / psy_rd=1.00:0.00 / mixed_ref=1 / me_range=32 / chroma_me=1 / trellis=2 / 8x8dct=1 / cqm=0 / deadzone=21,11 / fast_pskip=1 / chroma_qp_offset=-4 / threads=12 / lookahead_threads=2 / sliced_threads=0 / nr=0 / decimate=1 / interlaced=0 / bluray_compat=0 / constrained_intra=0 / bframes=8 / b_pyramid=2 / b_adapt=2 / b_bias=0 / direct=1 / weightb=1 / open_gop=0 / weightp=2 / keyint=250 / keyint_min=25 / scenecut=40 / intra_refresh=0 / rc_lookahead=50 / rc=2pass / mbtree=1 / bitrate=4000 / ratetol=1.0 / qcomp=0.60 / qpmin=0 / qpmax=69 / qpstep=4 / cplxblur=20.0 / qblur=0.5 / vbv_maxrate=62500 / vbv_bufsize=78125 / nal_hrd=none / filler=0 / ip_ratio=1.40 / aq=1:1.00Default : YesForced : NoColor range : LimitedColor primaries : BT.709Transfer characteristics : BT.709Matrix coefficients : BT.709
AudioID : 2Format : AC-3Format/Info : Audio Coding 3Mode extension : CM (complete main)Format settings, Endianness : BigCodec ID : A_AC3Duration : 44mn 8sBit rate mode : ConstantBit rate : 192 KbpsChannel(s) : 2 channelsChannel positions : Front: L RSampling rate : 48.0 KHzCompression mode : LossyDelay relative to video : 31msStream size : 60.6 MiB (5%)Language : RussianDefault : YesForced : No

x264 log

raw [info]: 1280x720p 1:1 @ 25/1 fps (cfr)x264 [info]: using SAR=1/1x264 [info]: using cpu capabilities: MMX2 SSE2Fast SSSE3 SSE4.2 AVXx264 [info]: profile High, level 4.1x264 [info]: frame I:499 Avg QP:12.89 size:138403x264 [info]: frame P:16839 Avg QP:15.41 size: 44558x264 [info]: frame B:48870 Avg QP:18.18 size: 10328x264 [info]: consecutive B-frames: 1.7% 3.6% 5.9% 70.5% 6.4% 7.1% 0.9% 3.7% 0.2%x264 [info]: mb I I16..4: 5.4% 72.1% 22.4%x264 [info]: mb P I16..4: 1.8% 16.0% 1.9% P16..4: 36.5% 24.3% 12.7% 0.0% 0.0% skip: 6.8%x264 [info]: mb B I16..4: 0.4% 2.4% 0.3% B16..8: 33.6% 9.6% 2.2% direct: 7.7% skip:43.9% L0:42.8% L1:46.0% BI:11.2%x264 [info]: 8x8 transform intra:80.0% inter:57.0%x264 [info]: coded y,uvDC,uvAC intra: 81.1% 65.9% 47.2% inter: 21.9% 23.4% 5.7%x264 [info]: i16 v,h,dc,p: 27% 25% 6% 43%x264 [info]: i8 v,h,dc,ddl,ddr,vr,hd,vl,hu: 16% 16% 8% 6% 9% 10% 11% 10% 13%x264 [info]: i4 v,h,dc,ddl,ddr,vr,hd,vl,hu: 17% 14% 6% 7% 12% 12% 12% 9% 11%x264 [info]: i8c dc,h,v,p: 47% 26% 19% 8%x264 [info]: Weighted P-Frames: Y:5.6% UV:1.7%x264 [info]: ref P L0: 56.3% 8.7% 15.8% 5.4% 4.6% 3.6% 3.3% 2.2% 0.2% 0.0%x264 [info]: ref B L0: 79.2% 9.8% 4.6% 2.4% 2.0% 1.3% 0.7%x264 [info]: ref B L1: 94.8% 5.2%x264 [info]: kb/s:3999.87encoded 66207 frames, 13.67 fps, 3999.87 kb/s

Скриншоты

-
[Профиль] [ЛС]
Кто просматривает тему:

Форум Тема Автор Размер
Author's Song (Rock) [CD] Константин Никольский - Энциклопедия Российского Рока - 2003, FLAC (image+.cue), lossless sergej644 529 MB
Фильмы (DVD 5/9) 12 / Двенадцать (Никита Михалков) [2007, Россия, Триллер, драма, криминал, детектив, военный, BD>DVD5 (Custom)] TorrentFilm 4.33 GB
Фильмы (DVD 5/9) 12 / Двенадцать (Никита Михалков) [2007, Россия, Триллер, драма, криминал, детектив, военный, BD>DVD9 (Custom)] TorrentFilm 7.8 GB
Фильмы (HD Rips | 720p, 1080p) 12 месяцев. Новая сказка (Денис Елеонский) [2015, Россия, фэнтези, сказка, WEB-DL 720p] Original Rus TorrentFilm 2.52 GB
Фильмы (HD Rips | 720p, 1080p) 2 дня (Авдотья Смирнова) [2011, Россия, драма, мелодрама, комедия, Blu-ray Disc 1080i] TorrentFilm 17.9 GB
Фильмы (HD Rips | 720p, 1080p) 22 минуты (Василий Сериков) [2014, Россия, боевик, BDRip 720p] TorrentFilm 4.37 GB
Фильмы (HD Rips | 720p, 1080p) 22 минуты (Василий Сериков) [2014, Россия, боевик, Blu-ray disc 1080p] Original Rus TorrentFilm 15.07 GB
Фильмы (HD Rips | 720p, 1080p) 22 минуты (Василий Сериков) [2014, Россия, боевик, WEB-DL 720p] [Open Matte] TorrentFilm 2.55 GB
Показать сообщения:    

Текущее время: Сегодня 17:59

Часовой пояс: GMT



Вы не можете начинать темы
Вы не можете отвечать на сообщения
Вы не можете редактировать свои сообщения
Вы не можете удалять свои сообщения
Вы не можете голосовать в опросах
Вы не можете прикреплять файлы к сообщениям
Вы не можете скачивать файлы