Россия. Гений места (Юрий Соколов) [2014, Документальный, путешествия, HDTV 1080i] [Россия HD]

 
Автор Сообщение

TorrentFilm ®

Пол:

Стаж: 2 года 6 месяцев

Сообщений: 7773



Награды: Нет

Торрент-статистика

Создавать темы 13-Апр-2015 00:03

[Цитировать]

Россия. Гений места
Год выпуска: 2014
Страна: Россия
Жанр: Документальный, путешествия
Продолжительность: 00:44:00 серия
Перевод: Не требуется
Режиссер: Юрий Соколов
Описание: Города и села могут быть маленькими, но их история – никогда. У каждого места своя неповторимая судьба и своя память. Этот духовный капитал древние римляне называли "гений места". Уже тогда, тысячи лет назад, люди знали: нельзя покорить народ, который помнит и ценит свое прошлое.
Мы начинаем новый проект – "Россия. Гений места". Два года мы будем путешествовать по нашей стране, по самым значимым и красивым местам, сыгравшим исключительную роль в российской истории и культуре. В первой программе - юго-запад Крыма, уникального полуострова, который стал своего рода историческим и культурным порталом, накрепко соединившим за долгие века Россию с европейской и общемировой цивилизацией.
Доп. информация: Ведущие: Владимир Мединский и Екатерина Федотова
Автор: Нина Бакланова
01. Россия. Гений места. Восточный Крым
02. Россия. Гений места. Краснодарский край
03. Россия. Гений места. Санкт-Петербург
04. Россия. Гений места. Пригороды Санкт-Петербурга
Тип релиза: HDTV 1080i
Контейнер: TS
Видео: H264; 1920x1080 (16:9); 25.000 fps; ~7 785 Kbps
Аудио 2: MPEG Audio 48000Hz stereo 192 Кбит/сек

MediaInfo

GeneralID : 1 (0x1)Complete name : Q:\_RAR\Россия. Гений места_1080i_[RUTRACKER.ORG]_by kuzmichm2196\01. Россия. Гений места. Восточный Крым.tsFormat : MPEG-TSFile size : 2.54 GiBDuration : 43mn 53sOverall bit rate mode : VariableOverall bit rate : 8 273 Kbps
VideoID : 2292 (0x8F4)Menu ID : 1 (0x1)Format : AVCFormat/Info : Advanced Video CodecFormat profile : High@L4.0Format settings, CABAC : YesFormat settings, ReFrames : 4 framesCodec ID : 27Duration : 43mn 53sBit rate : 7 670 KbpsWidth : 1 920 pixelsHeight : 1 080 pixelsDisplay aspect ratio : 16:9Frame rate : 25.000 fpsColor space : YUVChroma subsampling : 4:2:0Bit depth : 8 bitsScan type : MBAFFBits/(Pixel*Frame) : 0.148Stream size : 2.35 GiB (93%)
AudioID : 2295 (0x8F7)Menu ID : 1 (0x1)Format : MPEG AudioFormat version : Version 1Format profile : Layer 2Mode : Joint stereoMode extension : Intensity Stereo + MS StereoCodec ID : 3Duration : 43mn 53sBit rate mode : ConstantBit rate : 192 KbpsChannel(s) : 2 channelsSampling rate : 48.0 KHzCompression mode : LossyStream size : 60.3 MiB (2%)Language : English
[Профиль] [ЛС]
Показать сообщения:    

Текущее время: Сегодня 12:34

Часовой пояс: GMT



Вы не можете начинать темы
Вы не можете отвечать на сообщения
Вы не можете редактировать свои сообщения
Вы не можете удалять свои сообщения
Вы не можете голосовать в опросах
Вы не можете прикреплять файлы к сообщениям
Вы не можете скачивать файлы