Россия. Гений Места. Серии 1-8 (из ??) (Юрий Соколов, Татьяна Ушенко) [2014, Документальный, HDTV 720p]

 
Автор Сообщение

TorrentFilm ®

Пол:

Стаж: 2 года

Сообщений: 7741



Награды: Нет

Торрент-статистика

Создавать темы 09-Май-2015 00:04

[Цитировать]

Россия. Гений Места- Год выпуска: 2014-2015
Страна: Россия
Студия: Россия HD
Жанр: Документальный
Общая продолжительность: 5:59:50
Ведущие: Владимир Мединский и Екатерина Федотова
Режиссер: Юрий Соколов, Татьяна Ушенко-Описание: Города и села могут быть маленькими, но их история – никогда. У каждого места своя неповторимая судьба и своя память. Этот духовный капитал древние римляне называли "гений места". Уже тогда, тысячи лет назад, люди знали: нельзя покорить народ, который помнит и ценит свое прошлое.-Автор рипа: lrn
Автор записи: Generalfilm
Сэмпл: sendfile-Тип релиза: HDTV 720p
Контейнер: MKV
Видео: 1280x720 (16:9), 25,000 fps, H264, ~4000 kbps avg, ~0.174 bit/pixel
Аудио: 48 kHz, AC3 Dolby Digital, 2/0 (L,R) ch, ~192.00 kbps avg-

Список и продолжительность серийСерия №1 - "Юго-Запад Крыма" (0:53:26)

В первой программе зрители увидят юго-запад Крыма — уникального полуострова, который стал своего рода историческим и культурным порталом, накрепко соединившим за долгие века Россию с европейской и общемировой цивилизацией.

Серия №2 - "Восточный Крым" (0:43:46)

Здесь каждое название - Феодосия, Судак, Коктебель, Керчь - связано с древней историей России. Более того, именно здесь легче всего понять, чем же Крым так манил к себе людей во все времена. И манит до сих пор. Владимир Мединский и Екатерина Федотова продолжают свое путешествие по Крыму. На этот раз их ждет восток полуострова.

Серия №3 - "Краснодарский Край" (0:44:48)

В советское время это место мечтал посетить каждый. Причем желательно летом. Понятие "отпуск у моря" напрямую ассоциировалось с Краснодарским краем и его многочисленными курортами. Как и у Крыма, у Краснодарского края невероятно удачное географическое расположение - на стыке Европы и Азии, на берегах Черного и Азовского морей. Поэтому у двух регионов очень много общего. Но перепутать их невозможно. Владимир Мединский и Екатерина Федотова продолжают исследовать гений места России.

Серия №4 - "Санкт-Петербург" (0:43:59)

Ленинград, Петроград, Питер, Санкт-Петербург – наша северная столица и один из самых знаменитых, самых посещаемых туристами городов мира. Он весь - как единое произведение искусства из гранита и воды, которое поражает своими масштабами и совершенством исполнения. И он - как хороший роман, который хочется перечитывать снова и снова, хотя точно знаешь, что делают герои и даже на какой странице происходит то или иное событие. Говорить о Санкт-Петербурге можно бесконечно, но лучше отправиться туда и все увидеть своими глазами…

Серия №5 - "Пригороды Санкт-Петербурга" (0:43:57)

В этой программе мы отправимся в петербургские пригороды - они подобно драгоценному ожерелью обрамляют город на Неве и привлекают к себе ежегодно сотни тысяч туристов со всего мира. Пригороды росли и возводились одновременно с городом Петра. И в итоге стали неотъемлемой частью его истории, равно как и истории всей страны.

Серия №6 - "Ленинградская Область" (0:43:41)

В предыдущей программе мы узнали все о пригородах Санкт-Петербурга. Естественное продолжение пригородов – это вся остальная Ленинградская область. Ее можно сравнить с драгоценной монетой, у которой одна сторона парадная – дворцы и парки, демонстрирующие богатство России. А вот мощь страны показывают крепости и замки, это уже вторая сторона – военно-историческая. Владимир Мединский и Екатерина Федотова снова отправляются в путешествие.

Серия №7 - "Псковская Область" (0:43:52)

Программа "Гений места" отправляется на Псковщину, в те самые места, которые способны ответить на извечный вопрос, заданный в "Повести временных лет": "Откуда есть пошла земля русская?". Путешествие по этому краю - как настоящее путешествие во времени. Именно здесь, на северо-западной окраине Руси, формировалась русская государственность. Здесь происходили первые контакты между Древней Русью и Западной Европой.

Серия №8 - "Кавказские Минеральные Воды" (0:43:18)

В этой программе мы отправимся в Ставропольский край, туда, где находятся курорты Кавказских Минеральных вод, только представьте, русская аристократия на конных экипажах могла ехать на воды в течении полутора, двух месяцев. Так были популярны эти курорты полтора века назад. Популярны они и сейчас.

MediaInfoRossiya.Geniy.Mesta.(01).2014.HDTV.720p.x264-lrn

GeneralUnique ID : 175629256331060358623857108826685614201 (0x8420F6E21F2F38A8A98CDE0D308EA879)Complete name : E:\uTorrent.Temp\Temp\Rossiya.Geniy.Mesta.2015.HDTV.720p.x264-lrn\Rossiya.Geniy.Mesta.(01).2014.HDTV.720p.x264-lrn.mkvFormat : MatroskaFormat version : Version 4 / Version 2File size : 1.57 GiBDuration : 53mn 26sOverall bit rate : 4 193 KbpsMovie name : Rossiya.Geniy.Mesta.2015.HDTV.720p.x264-lrnEncoded date : UTC 2010-02-22 21:41:31Writing application : mkvmerge v5.9.0 ('On The Loose') built on Dec 9 2012 15:37:01Writing library : libebml v1.3.0 + libmatroska v1.4.0
VideoID : 1Format : AVCFormat/Info : Advanced Video CodecFormat profile : High@L4.1Format settings, CABAC : YesFormat settings, ReFrames : 8 framesCodec ID : V_MPEG4/ISO/AVCDuration : 53mn 26sBit rate : 4 000 KbpsWidth : 1 280 pixelsHeight : 720 pixelsDisplay aspect ratio : 16:9Frame rate mode : ConstantFrame rate : 25.000 fpsColor space : YUVChroma subsampling : 4:2:0Bit depth : 8 bitsScan type : ProgressiveBits/(Pixel*Frame) : 0.174Stream size : 1.46 GiB (93%)Writing library : x264 core 142 r2479 dd79a61Encoding settings : cabac=1 / ref=8 / deblock=1:-3:-3 / analyse=0x3:0x113 / me=umh / subme=9 / psy=1 / psy_rd=1.00:0.00 / mixed_ref=1 / me_range=32 / chroma_me=1 / trellis=2 / 8x8dct=1 / cqm=0 / deadzone=21,11 / fast_pskip=1 / chroma_qp_offset=-4 / threads=12 / lookahead_threads=2 / sliced_threads=0 / nr=0 / decimate=1 / interlaced=0 / bluray_compat=0 / constrained_intra=0 / bframes=8 / b_pyramid=2 / b_adapt=2 / b_bias=0 / direct=1 / weightb=1 / open_gop=0 / weightp=2 / keyint=250 / keyint_min=25 / scenecut=40 / intra_refresh=0 / rc_lookahead=50 / rc=2pass / mbtree=1 / bitrate=4000 / ratetol=1.0 / qcomp=0.60 / qpmin=0 / qpmax=69 / qpstep=4 / cplxblur=20.0 / qblur=0.5 / vbv_maxrate=62500 / vbv_bufsize=78125 / nal_hrd=none / filler=0 / ip_ratio=1.40 / aq=1:1.00Default : YesForced : NoColor range : LimitedColor primaries : BT.709Transfer characteristics : BT.709Matrix coefficients : BT.709
AudioID : 2Format : AC-3Format/Info : Audio Coding 3Mode extension : CM (complete main)Format settings, Endianness : BigCodec ID : A_AC3Duration : 53mn 26sBit rate mode : ConstantBit rate : 192 KbpsChannel(s) : 2 channelsChannel positions : Front: L RSampling rate : 48.0 KHzCompression mode : LossyStream size : 73.4 MiB (5%)Language : RussianDefault : YesForced : No

Rossiya.Geniy.Mesta.(02).2014.HDTV.720p.x264-lrn

GeneralUnique ID : 181126008878026591746914129904502292275 (0x884399B529532A41817E8D34D333BF33)Complete name : E:\uTorrent.Temp\Temp\Rossiya.Geniy.Mesta.2015.HDTV.720p.x264-lrn\Rossiya.Geniy.Mesta.(02).2014.HDTV.720p.x264-lrn.mkvFormat : MatroskaFormat version : Version 4 / Version 2File size : 1.28 GiBDuration : 43mn 46sOverall bit rate : 4 194 KbpsMovie name : Rossiya.Geniy.Mesta.2015.HDTV.720p.x264-lrnEncoded date : UTC 2010-02-22 21:41:31Writing application : mkvmerge v5.9.0 ('On The Loose') built on Dec 9 2012 15:37:01Writing library : libebml v1.3.0 + libmatroska v1.4.0
VideoID : 1Format : AVCFormat/Info : Advanced Video CodecFormat profile : High@L4.1Format settings, CABAC : YesFormat settings, ReFrames : 8 framesCodec ID : V_MPEG4/ISO/AVCDuration : 43mn 46sBit rate : 4 000 KbpsWidth : 1 280 pixelsHeight : 720 pixelsDisplay aspect ratio : 16:9Frame rate mode : ConstantFrame rate : 25.000 fpsColor space : YUVChroma subsampling : 4:2:0Bit depth : 8 bitsScan type : ProgressiveBits/(Pixel*Frame) : 0.174Stream size : 1.20 GiB (93%)Writing library : x264 core 142 r2479 dd79a61Encoding settings : cabac=1 / ref=8 / deblock=1:-3:-3 / analyse=0x3:0x113 / me=umh / subme=9 / psy=1 / psy_rd=1.00:0.00 / mixed_ref=1 / me_range=32 / chroma_me=1 / trellis=2 / 8x8dct=1 / cqm=0 / deadzone=21,11 / fast_pskip=1 / chroma_qp_offset=-4 / threads=12 / lookahead_threads=2 / sliced_threads=0 / nr=0 / decimate=1 / interlaced=0 / bluray_compat=0 / constrained_intra=0 / bframes=8 / b_pyramid=2 / b_adapt=2 / b_bias=0 / direct=1 / weightb=1 / open_gop=0 / weightp=2 / keyint=250 / keyint_min=25 / scenecut=40 / intra_refresh=0 / rc_lookahead=50 / rc=2pass / mbtree=1 / bitrate=4000 / ratetol=1.0 / qcomp=0.60 / qpmin=0 / qpmax=69 / qpstep=4 / cplxblur=20.0 / qblur=0.5 / vbv_maxrate=62500 / vbv_bufsize=78125 / nal_hrd=none / filler=0 / ip_ratio=1.40 / aq=1:1.00Default : YesForced : NoColor range : LimitedColor primaries : BT.709Transfer characteristics : BT.709Matrix coefficients : BT.709
AudioID : 2Format : AC-3Format/Info : Audio Coding 3Mode extension : CM (complete main)Format settings, Endianness : BigCodec ID : A_AC3Duration : 43mn 46sBit rate mode : ConstantBit rate : 192 KbpsChannel(s) : 2 channelsChannel positions : Front: L RSampling rate : 48.0 KHzCompression mode : LossyStream size : 60.1 MiB (5%)Language : RussianDefault : YesForced : No

Rossiya.Geniy.Mesta.(03).2015.HDTV.720p.x264-lrn

GeneralUnique ID : 222160964132959543546257228799999229975 (0xA722A53454C8AFA08B8FA7E8099C4017)Complete name : E:\uTorrent.Temp\Temp\Rossiya.Geniy.Mesta.2015.HDTV.720p.x264-lrn\Rossiya.Geniy.Mesta.(03).2015.HDTV.720p.x264-lrn.mkvFormat : MatroskaFormat version : Version 4 / Version 2File size : 1.28 GiBDuration : 43mn 48sOverall bit rate : 4 194 KbpsMovie name : Rossiya.Geniy.Mesta.2015.HDTV.720p.x264-lrnEncoded date : UTC 2010-02-22 21:41:31Writing application : mkvmerge v5.9.0 ('On The Loose') built on Dec 9 2012 15:37:01Writing library : libebml v1.3.0 + libmatroska v1.4.0DURATION : 00:43:48.560000000NUMBER_OF_FRAMES : 65714NUMBER_OF_BYTES : 1314493628_STATISTICS_WRITING_APP : mkvmerge v7.7.0 ('Six Voices') 32bit built on Feb 28 2015 23:23:00_STATISTICS_WRITING_DATE_UT : 2015-05-07 20:22:52_STATISTICS_TAGS : BPS DURATION NUMBER_OF_FRAMES NUMBER_OF_BYTES
VideoID : 1Format : AVCFormat/Info : Advanced Video CodecFormat profile : High@L4.1Format settings, CABAC : YesFormat settings, ReFrames : 8 framesCodec ID : V_MPEG4/ISO/AVCDuration : 43mn 48sBit rate : 4 000 KbpsWidth : 1 280 pixelsHeight : 720 pixelsDisplay aspect ratio : 16:9Frame rate mode : ConstantFrame rate : 25.000 fpsColor space : YUVChroma subsampling : 4:2:0Bit depth : 8 bitsScan type : ProgressiveBits/(Pixel*Frame) : 0.174Stream size : 1.20 GiB (93%)Writing library : x264 core 146 r2538 121396cEncoding settings : cabac=1 / ref=8 / deblock=1:-3:-3 / analyse=0x3:0x133 / me=umh / subme=9 / psy=1 / psy_rd=1.00:0.00 / mixed_ref=1 / me_range=32 / chroma_me=1 / trellis=2 / 8x8dct=1 / cqm=0 / deadzone=21,11 / fast_pskip=1 / chroma_qp_offset=-2 / threads=12 / lookahead_threads=2 / sliced_threads=0 / nr=0 / decimate=1 / interlaced=0 / bluray_compat=0 / constrained_intra=0 / bframes=8 / b_pyramid=2 / b_adapt=2 / b_bias=0 / direct=3 / weightb=1 / open_gop=0 / weightp=2 / keyint=250 / keyint_min=25 / scenecut=40 / intra_refresh=0 / rc_lookahead=50 / rc=2pass / mbtree=1 / bitrate=4000 / ratetol=1.0 / qcomp=0.60 / qpmin=0 / qpmax=69 / qpstep=4 / cplxblur=20.0 / qblur=0.5 / vbv_maxrate=62500 / vbv_bufsize=78125 / nal_hrd=none / filler=0 / ip_ratio=1.40 / aq=1:1.00Default : YesForced : No
AudioID : 2Format : AC-3Format/Info : Audio Coding 3Mode extension : CM (complete main)Format settings, Endianness : BigCodec ID : A_AC3Duration : 43mn 48sBit rate mode : ConstantBit rate : 192 KbpsChannel(s) : 2 channelsChannel positions : Front: L RSampling rate : 48.0 KHzCompression mode : LossyStream size : 60.2 MiB (5%)Language : RussianDefault : YesForced : No

Rossiya.Geniy.Mesta.(04).2015.HDTV.720p.x264-lrn

GeneralUnique ID : 220222821513700235785460645101401620138 (0xA5AD5F654622A4718089444B7F153EAA)Complete name : E:\uTorrent.Temp\Temp\Rossiya.Geniy.Mesta.2015.HDTV.720p.x264-lrn\Rossiya.Geniy.Mesta.(04).2015.HDTV.720p.x264-lrn.mkvFormat : MatroskaFormat version : Version 4 / Version 2File size : 1.29 GiBDuration : 43mn 59sOverall bit rate : 4 194 KbpsMovie name : Rossiya.Geniy.Mesta.2015.HDTV.720p.x264-lrnEncoded date : UTC 2010-02-22 21:41:31Writing application : mkvmerge v5.9.0 ('On The Loose') built on Dec 9 2012 15:37:01Writing library : libebml v1.3.0 + libmatroska v1.4.0
VideoID : 1Format : AVCFormat/Info : Advanced Video CodecFormat profile : High@L4.1Format settings, CABAC : YesFormat settings, ReFrames : 8 framesCodec ID : V_MPEG4/ISO/AVCDuration : 43mn 59sBit rate : 4 000 KbpsWidth : 1 280 pixelsHeight : 720 pixelsDisplay aspect ratio : 16:9Frame rate mode : ConstantFrame rate : 25.000 fpsColor space : YUVChroma subsampling : 4:2:0Bit depth : 8 bitsScan type : ProgressiveBits/(Pixel*Frame) : 0.174Stream size : 1.20 GiB (93%)Writing library : x264 core 142 r2479 dd79a61Encoding settings : cabac=1 / ref=8 / deblock=1:-3:-3 / analyse=0x3:0x113 / me=umh / subme=9 / psy=1 / psy_rd=1.00:0.00 / mixed_ref=1 / me_range=32 / chroma_me=1 / trellis=2 / 8x8dct=1 / cqm=0 / deadzone=21,11 / fast_pskip=1 / chroma_qp_offset=-4 / threads=12 / lookahead_threads=2 / sliced_threads=0 / nr=0 / decimate=1 / interlaced=0 / bluray_compat=0 / constrained_intra=0 / bframes=8 / b_pyramid=2 / b_adapt=2 / b_bias=0 / direct=1 / weightb=1 / open_gop=0 / weightp=2 / keyint=250 / keyint_min=25 / scenecut=40 / intra_refresh=0 / rc_lookahead=50 / rc=2pass / mbtree=1 / bitrate=4000 / ratetol=1.0 / qcomp=0.60 / qpmin=0 / qpmax=69 / qpstep=4 / cplxblur=20.0 / qblur=0.5 / vbv_maxrate=62500 / vbv_bufsize=78125 / nal_hrd=none / filler=0 / ip_ratio=1.40 / aq=1:1.00Default : YesForced : NoColor range : LimitedColor primaries : BT.709Transfer characteristics : BT.709Matrix coefficients : BT.709
AudioID : 2Format : AC-3Format/Info : Audio Coding 3Mode extension : CM (complete main)Format settings, Endianness : BigCodec ID : A_AC3Duration : 43mn 59sBit rate mode : ConstantBit rate : 192 KbpsChannel(s) : 2 channelsChannel positions : Front: L RSampling rate : 48.0 KHzCompression mode : LossyStream size : 60.4 MiB (5%)Language : RussianDefault : YesForced : No

Rossiya.Geniy.Mesta.(05).2015.HDTV.720p.x264-lrn

GeneralUnique ID : 178243589142754265420374647510754529164 (0x861877714BC1AA92A987C1BF48320F8C)Complete name : E:\uTorrent.Temp\Temp\Rossiya.Geniy.Mesta.2015.HDTV.720p.x264-lrn\Rossiya.Geniy.Mesta.(05).2015.HDTV.720p.x264-lrn.mkvFormat : MatroskaFormat version : Version 4 / Version 2File size : 1.29 GiBDuration : 43mn 57sOverall bit rate : 4 194 KbpsMovie name : Rossiya.Geniy.Mesta.2015.HDTV.720p.x264-lrnEncoded date : UTC 2010-02-22 21:41:31Writing application : mkvmerge v5.9.0 ('On The Loose') built on Dec 9 2012 15:37:01Writing library : libebml v1.3.0 + libmatroska v1.4.0DURATION : 00:43:57.040000000NUMBER_OF_FRAMES : 65926NUMBER_OF_BYTES : 1318708040_STATISTICS_WRITING_APP : mkvmerge v7.7.0 ('Six Voices') 32bit built on Feb 28 2015 23:23:00_STATISTICS_WRITING_DATE_UT : 2015-05-08 09:58:15_STATISTICS_TAGS : BPS DURATION NUMBER_OF_FRAMES NUMBER_OF_BYTES
VideoID : 1Format : AVCFormat/Info : Advanced Video CodecFormat profile : High@L4.1Format settings, CABAC : YesFormat settings, ReFrames : 8 framesCodec ID : V_MPEG4/ISO/AVCDuration : 43mn 57sBit rate : 4 000 KbpsWidth : 1 280 pixelsHeight : 720 pixelsDisplay aspect ratio : 16:9Frame rate mode : ConstantFrame rate : 25.000 fpsColor space : YUVChroma subsampling : 4:2:0Bit depth : 8 bitsScan type : ProgressiveBits/(Pixel*Frame) : 0.174Stream size : 1.20 GiB (93%)Writing library : x264 core 146 r2538 121396cEncoding settings : cabac=1 / ref=8 / deblock=1:-3:-3 / analyse=0x3:0x133 / me=umh / subme=9 / psy=1 / psy_rd=1.00:0.00 / mixed_ref=1 / me_range=32 / chroma_me=1 / trellis=2 / 8x8dct=1 / cqm=0 / deadzone=21,11 / fast_pskip=1 / chroma_qp_offset=-2 / threads=12 / lookahead_threads=2 / sliced_threads=0 / nr=0 / decimate=1 / interlaced=0 / bluray_compat=0 / constrained_intra=0 / bframes=8 / b_pyramid=2 / b_adapt=2 / b_bias=0 / direct=3 / weightb=1 / open_gop=0 / weightp=2 / keyint=250 / keyint_min=25 / scenecut=40 / intra_refresh=0 / rc_lookahead=50 / rc=2pass / mbtree=1 / bitrate=4000 / ratetol=1.0 / qcomp=0.60 / qpmin=0 / qpmax=69 / qpstep=4 / cplxblur=20.0 / qblur=0.5 / vbv_maxrate=62500 / vbv_bufsize=78125 / nal_hrd=none / filler=0 / ip_ratio=1.40 / aq=1:1.00Default : YesForced : No
AudioID : 2Format : AC-3Format/Info : Audio Coding 3Mode extension : CM (complete main)Format settings, Endianness : BigCodec ID : A_AC3Duration : 43mn 57sBit rate mode : ConstantBit rate : 192 KbpsChannel(s) : 2 channelsChannel positions : Front: L RSampling rate : 48.0 KHzCompression mode : LossyDelay relative to video : 200msStream size : 60.4 MiB (5%)Language : RussianDefault : YesForced : No

Rossiya.Geniy.Mesta.(06).2015.HDTV.720p.x264-lrn

GeneralUnique ID : 182332261773353083301303946267519433373 (0x892BEA912D25320D96497FA6E1C13A9D)Complete name : E:\uTorrent.Temp\Temp\Rossiya.Geniy.Mesta.2015.HDTV.720p.x264-lrn\Rossiya.Geniy.Mesta.(06).2015.HDTV.720p.x264-lrn.mkvFormat : MatroskaFormat version : Version 4 / Version 2File size : 1.28 GiBDuration : 43mn 41sOverall bit rate : 4 194 KbpsMovie name : Rossiya.Geniy.Mesta.2015.HDTV.720p.x264-lrnEncoded date : UTC 2010-02-22 21:41:31Writing application : mkvmerge v5.9.0 ('On The Loose') built on Dec 9 2012 15:37:01Writing library : libebml v1.3.0 + libmatroska v1.4.0DURATION : 00:43:41.320000000NUMBER_OF_FRAMES : 65533NUMBER_OF_BYTES : 1310556919_STATISTICS_WRITING_APP : mkvmerge v7.7.0 ('Six Voices') 32bit built on Feb 28 2015 23:23:00_STATISTICS_WRITING_DATE_UT : 2015-05-08 11:38:27_STATISTICS_TAGS : BPS DURATION NUMBER_OF_FRAMES NUMBER_OF_BYTES
VideoID : 1Format : AVCFormat/Info : Advanced Video CodecFormat profile : High@L4.1Format settings, CABAC : YesFormat settings, ReFrames : 8 framesCodec ID : V_MPEG4/ISO/AVCDuration : 43mn 41sBit rate : 4 000 KbpsWidth : 1 280 pixelsHeight : 720 pixelsDisplay aspect ratio : 16:9Frame rate mode : ConstantFrame rate : 25.000 fpsColor space : YUVChroma subsampling : 4:2:0Bit depth : 8 bitsScan type : ProgressiveBits/(Pixel*Frame) : 0.174Stream size : 1.20 GiB (93%)Writing library : x264 core 146 r2538 121396cEncoding settings : cabac=1 / ref=8 / deblock=1:-3:-3 / analyse=0x3:0x133 / me=umh / subme=9 / psy=1 / psy_rd=1.00:0.00 / mixed_ref=1 / me_range=32 / chroma_me=1 / trellis=2 / 8x8dct=1 / cqm=0 / deadzone=21,11 / fast_pskip=1 / chroma_qp_offset=-2 / threads=12 / lookahead_threads=2 / sliced_threads=0 / nr=0 / decimate=1 / interlaced=0 / bluray_compat=0 / constrained_intra=0 / bframes=8 / b_pyramid=2 / b_adapt=2 / b_bias=0 / direct=3 / weightb=1 / open_gop=0 / weightp=2 / keyint=250 / keyint_min=25 / scenecut=40 / intra_refresh=0 / rc_lookahead=50 / rc=2pass / mbtree=1 / bitrate=4000 / ratetol=1.0 / qcomp=0.60 / qpmin=0 / qpmax=69 / qpstep=4 / cplxblur=20.0 / qblur=0.5 / vbv_maxrate=62500 / vbv_bufsize=78125 / nal_hrd=none / filler=0 / ip_ratio=1.40 / aq=1:1.00Default : YesForced : No
AudioID : 2Format : AC-3Format/Info : Audio Coding 3Mode extension : CM (complete main)Format settings, Endianness : BigCodec ID : A_AC3Duration : 43mn 41sBit rate mode : ConstantBit rate : 192 KbpsChannel(s) : 2 channelsChannel positions : Front: L RSampling rate : 48.0 KHzCompression mode : LossyStream size : 60.0 MiB (5%)Language : RussianDefault : YesForced : No

Rossiya.Geniy.Mesta.(07).2015.HDTV.720p.x264-lrn

GeneralUnique ID : 220027870371804221770658966531836918343 (0xA587D38FECF72F6DA98CF335C7EABA47)Complete name : E:\uTorrent.Temp\Temp\Rossiya.Geniy.Mesta.2015.HDTV.720p.x264-lrn\Rossiya.Geniy.Mesta.(07).2015.HDTV.720p.x264-lrn.mkvFormat : MatroskaFormat version : Version 4 / Version 2File size : 1.29 GiBDuration : 43mn 52sOverall bit rate : 4 194 KbpsMovie name : Rossiya.Geniy.Mesta.2015.HDTV.720p.x264-lrnEncoded date : UTC 2010-02-22 21:41:31Writing application : mkvmerge v5.9.0 ('On The Loose') built on Dec 9 2012 15:37:01Writing library : libebml v1.3.0 + libmatroska v1.4.0DURATION : 00:43:52.680000000NUMBER_OF_FRAMES : 65817NUMBER_OF_BYTES : 1316541535_STATISTICS_WRITING_APP : mkvmerge v7.7.0 ('Six Voices') 32bit built on Feb 28 2015 23:23:00_STATISTICS_WRITING_DATE_UT : 2015-05-08 12:59:28_STATISTICS_TAGS : BPS DURATION NUMBER_OF_FRAMES NUMBER_OF_BYTES
VideoID : 1Format : AVCFormat/Info : Advanced Video CodecFormat profile : High@L4.1Format settings, CABAC : YesFormat settings, ReFrames : 8 framesCodec ID : V_MPEG4/ISO/AVCDuration : 43mn 52sBit rate : 4 000 KbpsWidth : 1 280 pixelsHeight : 720 pixelsDisplay aspect ratio : 16:9Frame rate mode : ConstantFrame rate : 25.000 fpsColor space : YUVChroma subsampling : 4:2:0Bit depth : 8 bitsScan type : ProgressiveBits/(Pixel*Frame) : 0.174Stream size : 1.20 GiB (93%)Writing library : x264 core 146 r2538 121396cEncoding settings : cabac=1 / ref=8 / deblock=1:-3:-3 / analyse=0x3:0x133 / me=umh / subme=9 / psy=1 / psy_rd=1.00:0.00 / mixed_ref=1 / me_range=32 / chroma_me=1 / trellis=2 / 8x8dct=1 / cqm=0 / deadzone=21,11 / fast_pskip=1 / chroma_qp_offset=-2 / threads=12 / lookahead_threads=2 / sliced_threads=0 / nr=0 / decimate=1 / interlaced=0 / bluray_compat=0 / constrained_intra=0 / bframes=8 / b_pyramid=2 / b_adapt=2 / b_bias=0 / direct=3 / weightb=1 / open_gop=0 / weightp=2 / keyint=250 / keyint_min=25 / scenecut=40 / intra_refresh=0 / rc_lookahead=50 / rc=2pass / mbtree=1 / bitrate=4000 / ratetol=1.0 / qcomp=0.60 / qpmin=0 / qpmax=69 / qpstep=4 / cplxblur=20.0 / qblur=0.5 / vbv_maxrate=62500 / vbv_bufsize=78125 / nal_hrd=none / filler=0 / ip_ratio=1.40 / aq=1:1.00Default : YesForced : No
AudioID : 2Format : AC-3Format/Info : Audio Coding 3Mode extension : CM (complete main)Format settings, Endianness : BigCodec ID : A_AC3Duration : 43mn 52sBit rate mode : ConstantBit rate : 192 KbpsChannel(s) : 2 channelsChannel positions : Front: L RSampling rate : 48.0 KHzCompression mode : LossyStream size : 60.3 MiB (5%)Language : RussianDefault : YesForced : No

Rossiya.Geniy.Mesta.(08).2015.HDTV.720p.x264-lrn

GeneralUnique ID : 226402570135279015104307207345523495371 (0xAA538C86BD8FE7CBAC70E787595191CB)Complete name : E:\uTorrent.Temp\Temp\Rossiya.Geniy.Mesta.2015.HDTV.720p.x264-lrn\Rossiya.Geniy.Mesta.(08).2015.HDTV.720p.x264-lrn.mkvFormat : MatroskaFormat version : Version 4 / Version 2File size : 1.27 GiBDuration : 43mn 18sOverall bit rate : 4 194 KbpsMovie name : Rossiya.Geniy.Mesta.2015.HDTV.720p.x264-lrnEncoded date : UTC 2010-02-22 21:41:31Writing application : mkvmerge v5.9.0 ('On The Loose') built on Dec 9 2012 15:37:01Writing library : libebml v1.3.0 + libmatroska v1.4.0DURATION : 00:43:18.000000000NUMBER_OF_FRAMES : 64950NUMBER_OF_BYTES : 1299072459_STATISTICS_WRITING_APP : mkvmerge v7.7.0 ('Six Voices') 32bit built on Feb 28 2015 23:23:00_STATISTICS_WRITING_DATE_UT : 2015-05-08 14:28:13_STATISTICS_TAGS : BPS DURATION NUMBER_OF_FRAMES NUMBER_OF_BYTES
VideoID : 1Format : AVCFormat/Info : Advanced Video CodecFormat profile : High@L4.1Format settings, CABAC : YesFormat settings, ReFrames : 8 framesCodec ID : V_MPEG4/ISO/AVCDuration : 43mn 18sBit rate : 4 000 KbpsWidth : 1 280 pixelsHeight : 720 pixelsDisplay aspect ratio : 16:9Frame rate mode : ConstantFrame rate : 25.000 fpsColor space : YUVChroma subsampling : 4:2:0Bit depth : 8 bitsScan type : ProgressiveBits/(Pixel*Frame) : 0.174Stream size : 1.19 GiB (93%)Writing library : x264 core 146 r2538 121396cEncoding settings : cabac=1 / ref=8 / deblock=1:-3:-3 / analyse=0x3:0x133 / me=umh / subme=9 / psy=1 / psy_rd=1.00:0.00 / mixed_ref=1 / me_range=32 / chroma_me=1 / trellis=2 / 8x8dct=1 / cqm=0 / deadzone=21,11 / fast_pskip=1 / chroma_qp_offset=-2 / threads=12 / lookahead_threads=2 / sliced_threads=0 / nr=0 / decimate=1 / interlaced=0 / bluray_compat=0 / constrained_intra=0 / bframes=8 / b_pyramid=2 / b_adapt=2 / b_bias=0 / direct=3 / weightb=1 / open_gop=0 / weightp=2 / keyint=250 / keyint_min=25 / scenecut=40 / intra_refresh=0 / rc_lookahead=50 / rc=2pass / mbtree=1 / bitrate=4000 / ratetol=1.0 / qcomp=0.60 / qpmin=0 / qpmax=69 / qpstep=4 / cplxblur=20.0 / qblur=0.5 / vbv_maxrate=62500 / vbv_bufsize=78125 / nal_hrd=none / filler=0 / ip_ratio=1.40 / aq=1:1.00Default : YesForced : No
AudioID : 2Format : AC-3Format/Info : Audio Coding 3Mode extension : CM (complete main)Format settings, Endianness : BigCodec ID : A_AC3Duration : 43mn 18sBit rate mode : ConstantBit rate : 192 KbpsChannel(s) : 2 channelsChannel positions : Front: L RSampling rate : 48.0 KHzCompression mode : LossyStream size : 59.5 MiB (5%)Language : RussianDefault : YesForced : No

x264 logRossiya.Geniy.Mesta.(01).2014.HDTV.720p.x264-lrn

raw [info]: 1280x720p 1:1 @ 25/1 fps (cfr)x264 [info]: using SAR=1/1x264 [info]: using cpu capabilities: MMX2 SSE2Fast SSSE3 SSE4.2 AVXx264 [info]: profile High, level 4.1x264 [info]: frame I:637 Avg QP:15.32 size:178103x264 [info]: frame P:19358 Avg QP:18.58 size: 49603x264 [info]: frame B:60173 Avg QP:22.58 size: 8797x264 [info]: consecutive B-frames: 1.7% 3.3% 9.1% 47.4% 16.8% 14.8% 2.9% 3.0% 1.0%x264 [info]: mb I I16..4: 4.6% 67.6% 27.8%x264 [info]: mb P I16..4: 1.7% 7.5% 1.4% P16..4: 41.2% 25.0% 15.4% 0.0% 0.0% skip: 7.9%x264 [info]: mb B I16..4: 0.2% 0.5% 0.1% B16..8: 36.0% 7.1% 2.1% direct: 5.4% skip:48.5% L0:37.0% L1:47.7% BI:15.3%x264 [info]: 8x8 transform intra:68.8% inter:56.7%x264 [info]: coded y,uvDC,uvAC intra: 73.2% 89.3% 70.3% inter: 20.4% 26.4% 6.3%x264 [info]: i16 v,h,dc,p: 37% 21% 7% 36%x264 [info]: i8 v,h,dc,ddl,ddr,vr,hd,vl,hu: 14% 14% 10% 7% 10% 10% 12% 10% 14%x264 [info]: i4 v,h,dc,ddl,ddr,vr,hd,vl,hu: 13% 12% 5% 8% 12% 12% 13% 10% 14%x264 [info]: i8c dc,h,v,p: 43% 25% 18% 14%x264 [info]: Weighted P-Frames: Y:2.9% UV:1.0%x264 [info]: ref P L0: 59.1% 15.7% 14.2% 3.4% 2.8% 1.9% 1.7% 1.2% 0.1% 0.0%x264 [info]: ref B L0: 88.4% 7.5% 2.1% 0.8% 0.6% 0.3% 0.2%x264 [info]: ref B L1: 95.8% 4.2%x264 [info]: kb/s:3999.07encoded 80169 frames, 13.32 fps, 3999.07 kb/s

Rossiya.Geniy.Mesta.(02).2014.HDTV.720p.x264-lrn

raw [info]: 1280x720p 1:1 @ 25/1 fps (cfr)x264 [info]: using SAR=1/1x264 [info]: using cpu capabilities: MMX2 SSE2Fast SSSE3 SSE4.2 AVXx264 [info]: profile High, level 4.1x264 [info]: frame I:669 Avg QP:14.83 size:136721x264 [info]: frame P:17013 Avg QP:17.96 size: 43055x264 [info]: frame B:47984 Avg QP:20.73 size: 10200x264 [info]: consecutive B-frames: 3.0% 4.1% 7.8% 57.9% 11.8% 11.9% 1.7% 1.6% 0.3%x264 [info]: mb I I16..4: 5.7% 74.1% 20.2%x264 [info]: mb P I16..4: 3.4% 13.6% 1.6% P16..4: 39.6% 24.6% 12.7% 0.0% 0.0% skip: 4.6%x264 [info]: mb B I16..4: 0.6% 1.5% 0.2% B16..8: 37.5% 8.6% 1.9% direct: 8.1% skip:41.6% L0:39.7% L1:44.2% BI:16.0%x264 [info]: 8x8 transform intra:71.2% inter:61.2%x264 [info]: coded y,uvDC,uvAC intra: 67.9% 85.3% 61.4% inter: 21.9% 32.7% 4.4%x264 [info]: i16 v,h,dc,p: 31% 19% 5% 45%x264 [info]: i8 v,h,dc,ddl,ddr,vr,hd,vl,hu: 14% 16% 9% 6% 9% 10% 12% 9% 14%x264 [info]: i4 v,h,dc,ddl,ddr,vr,hd,vl,hu: 16% 14% 6% 7% 11% 11% 13% 9% 13%x264 [info]: i8c dc,h,v,p: 36% 29% 21% 14%x264 [info]: Weighted P-Frames: Y:3.0% UV:1.0%x264 [info]: ref P L0: 54.8% 16.2% 15.5% 4.1% 3.4% 2.3% 2.2% 1.4% 0.2% 0.0%x264 [info]: ref B L0: 83.4% 9.1% 3.5% 1.7% 1.2% 0.7% 0.4%x264 [info]: ref B L1: 95.2% 4.8%x264 [info]: kb/s:4000.28encoded 65667 frames, 13.67 fps, 4000.28 kb/s

Rossiya.Geniy.Mesta.(03).2015.HDTV.720p.x264-lrn

raw [info]: 1280x720p 1:1 @ 25/1 fps (cfr)x264 [info]: using SAR=1/1x264 [info]: using cpu capabilities: MMX2 SSE2Fast SSSE3 SSE4.2 AVXx264 [info]: profile High, level 4.1x264 [info]: frame I:607 Avg QP:14.62 size:133679x264 [info]: frame P:17901 Avg QP:17.98 size: 44287x264 [info]: frame B:47206 Avg QP:21.35 size: 9333x264 [info]: consecutive B-frames: 4.1% 7.8% 11.1% 41.9% 15.2% 11.8% 2.4% 4.3% 1.4%x264 [info]: mb I I16..4: 4.5% 68.9% 26.6%x264 [info]: mb P I16..4: 2.8% 12.6% 1.8% P16..4: 37.8% 21.9% 15.8% 1.3% 0.4% skip: 5.7%x264 [info]: mb B I16..4: 0.4% 1.4% 0.3% B16..8: 35.7% 9.8% 2.6% direct: 5.4% skip:44.4% L0:34.6% L1:50.8% BI:14.6%x264 [info]: 8x8 transform intra:71.5% inter:57.5%x264 [info]: direct mvs spatial:95.1% temporal:4.9%x264 [info]: coded y,uvDC,uvAC intra: 70.0% 77.4% 44.6% inter: 21.4% 24.1% 2.3%x264 [info]: i16 v,h,dc,p: 24% 25% 5% 46%x264 [info]: i8 v,h,dc,ddl,ddr,vr,hd,vl,hu: 16% 19% 10% 6% 8% 9% 11% 9% 12%x264 [info]: i4 v,h,dc,ddl,ddr,vr,hd,vl,hu: 16% 19% 5% 6% 11% 10% 12% 9% 12%x264 [info]: i8c dc,h,v,p: 36% 29% 21% 14%x264 [info]: Weighted P-Frames: Y:1.8% UV:0.3%x264 [info]: ref P L0: 59.7% 15.7% 13.2% 3.6% 2.8% 1.9% 1.7% 1.2% 0.2% 0.0%x264 [info]: ref B L0: 86.0% 7.9% 2.9% 1.3% 1.0% 0.6% 0.3%x264 [info]: ref B L1: 94.6% 5.4%x264 [info]: kb/s:4000.65encoded 65714 frames, 14.32 fps, 4000.65 kb/s

Rossiya.Geniy.Mesta.(04).2015.HDTV.720p.x264-lrn

raw [info]: 1280x720p 1:1 @ 25/1 fps (cfr)x264 [info]: using SAR=1/1x264 [info]: using cpu capabilities: MMX2 SSE2Fast SSSE3 SSE4.2 AVXx264 [info]: profile High, level 4.1x264 [info]: frame I:738 Avg QP:14.75 size:138935x264 [info]: frame P:18188 Avg QP:17.89 size: 42268x264 [info]: frame B:47049 Avg QP:20.67 size: 9530x264 [info]: consecutive B-frames: 3.0% 4.8% 7.8% 78.2% 3.8% 1.4% 0.3% 0.5% 0.1%x264 [info]: mb I I16..4: 4.9% 67.8% 27.3%x264 [info]: mb P I16..4: 3.2% 13.1% 2.1% P16..4: 36.0% 24.6% 13.2% 0.0% 0.0% skip: 7.9%x264 [info]: mb B I16..4: 0.4% 1.2% 0.2% B16..8: 29.3% 7.8% 2.3% direct: 7.0% skip:51.7% L0:35.6% L1:45.3% BI:19.0%x264 [info]: 8x8 transform intra:69.5% inter:58.3%x264 [info]: coded y,uvDC,uvAC intra: 68.2% 82.9% 63.2% inter: 19.9% 24.4% 5.1%x264 [info]: i16 v,h,dc,p: 29% 23% 7% 41%x264 [info]: i8 v,h,dc,ddl,ddr,vr,hd,vl,hu: 15% 16% 11% 6% 9% 9% 11% 9% 12%x264 [info]: i4 v,h,dc,ddl,ddr,vr,hd,vl,hu: 17% 18% 7% 6% 10% 10% 12% 8% 12%x264 [info]: i8c dc,h,v,p: 39% 27% 23% 11%x264 [info]: Weighted P-Frames: Y:1.0% UV:0.3%x264 [info]: ref P L0: 62.2% 12.4% 13.8% 3.8% 2.8% 1.9% 1.8% 1.2% 0.1% 0.0%x264 [info]: ref B L0: 87.0% 8.2% 2.3% 1.1% 0.7% 0.5% 0.3%x264 [info]: ref B L1: 97.2% 2.8%x264 [info]: kb/s:4000.58encoded 65976 frames, 13.21 fps, 4000.58 kb/s

Rossiya.Geniy.Mesta.(05).2015.HDTV.720p.x264-lrn

raw [info]: 1280x720p 1:1 @ 25/1 fps (cfr)x264 [info]: using SAR=1/1x264 [info]: using cpu capabilities: MMX2 SSE2Fast SSSE3 SSE4.2 AVXx264 [info]: profile High, level 4.1x264 [info]: frame I:604 Avg QP:13.38 size:133195x264 [info]: frame P:17403 Avg QP:16.85 size: 44937x264 [info]: frame B:47919 Avg QP:20.06 size: 9521x264 [info]: consecutive B-frames: 4.1% 6.9% 9.3% 38.3% 17.8% 13.1% 2.5% 5.5% 2.5%x264 [info]: mb I I16..4: 5.0% 65.7% 29.3%x264 [info]: mb P I16..4: 2.6% 13.6% 2.0% P16..4: 35.8% 24.1% 15.5% 1.2% 0.3% skip: 4.8%x264 [info]: mb B I16..4: 0.4% 1.5% 0.2% B16..8: 36.7% 10.6% 2.7% direct: 5.8% skip:42.2% L0:35.7% L1:49.5% BI:14.8%x264 [info]: 8x8 transform intra:72.3% inter:54.6%x264 [info]: direct mvs spatial:95.6% temporal:4.4%x264 [info]: coded y,uvDC,uvAC intra: 70.3% 79.2% 50.5% inter: 21.2% 25.5% 3.2%x264 [info]: i16 v,h,dc,p: 37% 27% 5% 31%x264 [info]: i8 v,h,dc,ddl,ddr,vr,hd,vl,hu: 18% 20% 11% 5% 7% 8% 10% 8% 11%x264 [info]: i4 v,h,dc,ddl,ddr,vr,hd,vl,hu: 20% 20% 7% 6% 10% 10% 11% 7% 10%x264 [info]: i8c dc,h,v,p: 36% 29% 22% 12%x264 [info]: Weighted P-Frames: Y:1.7% UV:0.7%x264 [info]: ref P L0: 61.4% 13.3% 14.1% 3.7% 2.8% 1.8% 1.6% 1.1% 0.2% 0.0%x264 [info]: ref B L0: 86.6% 7.9% 2.6% 1.2% 0.9% 0.5% 0.3%x264 [info]: ref B L1: 94.1% 5.9%x264 [info]: kb/s:4000.57encoded 65926 frames, 14.00 fps, 4000.57 kb/s

Rossiya.Geniy.Mesta.(06).2015.HDTV.720p.x264-lrn

raw [info]: 1280x720p 1:1 @ 25/1 fps (cfr)x264 [info]: using SAR=1/1x264 [info]: using cpu capabilities: MMX2 SSE2Fast SSSE3 SSE4.2 AVXx264 [info]: profile High, level 4.1x264 [info]: frame I:611 Avg QP:13.54 size:148443x264 [info]: frame P:17094 Avg QP:16.99 size: 46581x264 [info]: frame B:47828 Avg QP:20.36 size: 8857x264 [info]: consecutive B-frames: 4.1% 6.4% 9.9% 35.2% 19.6% 13.8% 3.4% 5.0% 2.6%x264 [info]: mb I I16..4: 5.2% 64.7% 30.0%x264 [info]: mb P I16..4: 2.6% 11.0% 1.7% P16..4: 37.0% 23.2% 16.5% 1.4% 0.5% skip: 6.2%x264 [info]: mb B I16..4: 0.4% 0.9% 0.2% B16..8: 36.7% 10.2% 2.6% direct: 5.7% skip:43.3% L0:34.5% L1:51.1% BI:14.4%x264 [info]: 8x8 transform intra:69.2% inter:53.1%x264 [info]: direct mvs spatial:96.5% temporal:3.5%x264 [info]: coded y,uvDC,uvAC intra: 66.6% 78.5% 54.2% inter: 20.4% 24.9% 3.2%x264 [info]: i16 v,h,dc,p: 41% 25% 5% 28%x264 [info]: i8 v,h,dc,ddl,ddr,vr,hd,vl,hu: 19% 18% 13% 6% 8% 8% 9% 8% 11%x264 [info]: i4 v,h,dc,ddl,ddr,vr,hd,vl,hu: 20% 19% 7% 6% 10% 10% 10% 8% 11%x264 [info]: i8c dc,h,v,p: 38% 27% 22% 13%x264 [info]: Weighted P-Frames: Y:2.6% UV:1.0%x264 [info]: ref P L0: 61.9% 13.4% 13.8% 3.7% 2.6% 1.8% 1.6% 1.1% 0.2% 0.0%x264 [info]: ref B L0: 86.4% 8.2% 2.7% 1.2% 0.9% 0.5% 0.2%x264 [info]: ref B L1: 93.5% 6.5%x264 [info]: kb/s:3999.68encoded 65533 frames, 17.25 fps, 3999.68 kb/s

Rossiya.Geniy.Mesta.(07).2015.HDTV.720p.x264-lrn

raw [info]: 1280x720p 1:1 @ 25/1 fps (cfr)x264 [info]: using SAR=1/1x264 [info]: using cpu capabilities: MMX2 SSE2Fast SSSE3 SSE4.2 AVXx264 [info]: profile High, level 4.1x264 [info]: frame I:616 Avg QP:13.68 size:153539x264 [info]: frame P:16438 Avg QP:17.20 size: 49223x264 [info]: frame B:48763 Avg QP:20.67 size: 8466x264 [info]: consecutive B-frames: 2.7% 6.1% 8.3% 41.4% 15.5% 14.2% 3.7% 5.5% 2.4%x264 [info]: mb I I16..4: 5.5% 64.2% 30.4%x264 [info]: mb P I16..4: 2.6% 10.3% 1.6% P16..4: 37.5% 23.2% 16.9% 1.7% 0.6% skip: 5.8%x264 [info]: mb B I16..4: 0.4% 0.8% 0.2% B16..8: 35.6% 9.7% 2.6% direct: 5.8% skip:45.0% L0:34.3% L1:50.0% BI:15.7%x264 [info]: 8x8 transform intra:68.3% inter:53.1%x264 [info]: direct mvs spatial:96.9% temporal:3.1%x264 [info]: coded y,uvDC,uvAC intra: 67.3% 80.1% 52.7% inter: 20.2% 23.3% 2.5%x264 [info]: i16 v,h,dc,p: 47% 22% 5% 26%x264 [info]: i8 v,h,dc,ddl,ddr,vr,hd,vl,hu: 19% 17% 13% 6% 8% 9% 9% 9% 11%x264 [info]: i4 v,h,dc,ddl,ddr,vr,hd,vl,hu: 20% 18% 7% 6% 10% 10% 10% 8% 10%x264 [info]: i8c dc,h,v,p: 36% 28% 23% 12%x264 [info]: Weighted P-Frames: Y:2.0% UV:0.6%x264 [info]: ref P L0: 61.0% 13.7% 14.0% 3.7% 2.8% 1.9% 1.7% 1.2% 0.1% 0.0%x264 [info]: ref B L0: 86.4% 8.0% 2.7% 1.3% 0.9% 0.5% 0.3%x264 [info]: ref B L1: 94.5% 5.5%x264 [info]: kb/s:4000.61encoded 65817 frames, 17.59 fps, 4000.61 kb/s

Rossiya.Geniy.Mesta.(08).2015.HDTV.720p.x264-lrn

raw [info]: 1280x720p 1:1 @ 25/1 fps (cfr)x264 [info]: using SAR=1/1x264 [info]: using cpu capabilities: MMX2 SSE2Fast SSSE3 SSE4.2 AVXx264 [info]: profile High, level 4.1x264 [info]: frame I:568 Avg QP:12.76 size:145856x264 [info]: frame P:16824 Avg QP:16.11 size: 47676x264 [info]: frame B:47558 Avg QP:19.58 size: 8708x264 [info]: consecutive B-frames: 3.8% 6.1% 8.4% 41.6% 16.3% 12.0% 3.1% 6.4% 2.4%x264 [info]: mb I I16..4: 5.7% 62.4% 31.9%x264 [info]: mb P I16..4: 2.3% 10.6% 1.7% P16..4: 36.8% 23.1% 16.6% 1.5% 0.5% skip: 6.8%x264 [info]: mb B I16..4: 0.4% 1.0% 0.1% B16..8: 34.9% 10.3% 2.6% direct: 5.6% skip:44.9% L0:35.9% L1:49.3% BI:14.8%x264 [info]: 8x8 transform intra:69.5% inter:51.5%x264 [info]: direct mvs spatial:97.7% temporal:2.3%x264 [info]: coded y,uvDC,uvAC intra: 68.1% 80.4% 56.5% inter: 20.4% 23.9% 3.2%x264 [info]: i16 v,h,dc,p: 46% 23% 5% 26%x264 [info]: i8 v,h,dc,ddl,ddr,vr,hd,vl,hu: 19% 17% 13% 6% 8% 9% 9% 8% 11%x264 [info]: i4 v,h,dc,ddl,ddr,vr,hd,vl,hu: 22% 17% 8% 6% 10% 10% 10% 8% 10%x264 [info]: i8c dc,h,v,p: 39% 27% 23% 12%x264 [info]: Weighted P-Frames: Y:1.3% UV:0.2%x264 [info]: ref P L0: 62.5% 11.5% 13.8% 3.9% 3.0% 2.0% 1.9% 1.3% 0.2% 0.0%x264 [info]: ref B L0: 84.9% 8.5% 3.1% 1.5% 1.1% 0.6% 0.3%x264 [info]: ref B L1: 94.2% 5.8%x264 [info]: kb/s:4000.22encoded 64950 frames, 15.31 fps, 4000.22 kb/s

Скриншоты

-
[Профиль] [ЛС]
Кто просматривает тему:

Форум Тема Автор Размер
Author's Song (Rock) [CD] Константин Никольский - Энциклопедия Российского Рока - 2003, FLAC (image+.cue), lossless sergej644 529 MB
Фильмы (DVD 5/9) 12 / Двенадцать (Никита Михалков) [2007, Россия, Триллер, драма, криминал, детектив, военный, BD>DVD5 (Custom)] TorrentFilm 4.33 GB
Фильмы (DVD 5/9) 12 / Двенадцать (Никита Михалков) [2007, Россия, Триллер, драма, криминал, детектив, военный, BD>DVD9 (Custom)] TorrentFilm 7.8 GB
Фильмы (HD Rips | 720p, 1080p) 12 месяцев. Новая сказка (Денис Елеонский) [2015, Россия, фэнтези, сказка, WEB-DL 720p] Original Rus TorrentFilm 2.52 GB
Фильмы (HD Rips | 720p, 1080p) 2 дня (Авдотья Смирнова) [2011, Россия, драма, мелодрама, комедия, Blu-ray Disc 1080i] TorrentFilm 17.9 GB
Фильмы (HD Rips | 720p, 1080p) 22 минуты (Василий Сериков) [2014, Россия, боевик, BDRip 720p] TorrentFilm 4.37 GB
Фильмы (HD Rips | 720p, 1080p) 22 минуты (Василий Сериков) [2014, Россия, боевик, Blu-ray disc 1080p] Original Rus TorrentFilm 15.07 GB
Фильмы (HD Rips | 720p, 1080p) 22 минуты (Василий Сериков) [2014, Россия, боевик, WEB-DL 720p] [Open Matte] TorrentFilm 2.55 GB
Показать сообщения:    

Текущее время: Сегодня 18:30

Часовой пояс: GMT



Вы не можете начинать темы
Вы не можете отвечать на сообщения
Вы не можете редактировать свои сообщения
Вы не можете удалять свои сообщения
Вы не можете голосовать в опросах
Вы не можете прикреплять файлы к сообщениям
Вы не можете скачивать файлы