Роналду / Ronaldo (2015) BDRip 1080p | Sub

 
Автор Сообщение

BOSS ®

Пол:

Стаж: 2 года 1 месяц

Сообщений: 3726

Откуда: ODESSA



Награды: 20 (Подробнее)

Top Releaser 4 (Количество: 1) Mega Seeder 2 (Количество: 1) Mega Seeder 5 (Количество: 1)
Торрент-статистика

Создавать темы 13-Ноя-2015 19:50

[Цитировать]

Информация о фильме
Название: Роналду
Оригинальное название: Ronaldo
Страна: Великобритания
Студия: We Came, We Saw, We Conquered Studios
Жанр: документальный, спорт
Год выпуска: 2015
Продолжительность: 01:32:28
Перевод: Субтитры
Cубтитры: Rus, Eng
Оригинальная аудиодорожка: английский
Режиссер: Энтони Вонк / Anthony Wonke
В ролях: Криштиану Роналду, Дэвид Моррисси, Рио Фердинанд, Флорентино Перес, Dolores Aveiro, Hugo Aveiro, Georgie Bingham, Adrian Clarke, ClAudia Garcia, David Alvarez Izquierdo, Rhiannon Jones, Nelvino Lima, Miguel Lopes Marques, Rafael Navarrete MartInez, Carla Mendes, Jorge Mendes, Jorge Mendes, Miguel PaixAo, Ricardo Regufe, Jose Semedo, Mike Sewell
Описание: Этот фильм снимался на протяжении 14 месяцев с уникальным доступом во внутренний круг мужчин и спорта, это первый официальный фильм одного из самых знаменитых фигур в футболе. Впервые мы проникнем за закрытые двери футболиста, жизнь семьи, друзей. Глубокие разговоры, современные футбольные кадры из архива, этот фильм даёт удивительную проницательность в спортивной и личной жизни трёхкратного обладателя "Золотой мяч" Криштиану Роналду на пике своей карьеры.

Тип релиза: BDRip 1080p
Контейнер: MKV
Видео: MPEG-4 AVC, 13.4 Mбит/с, 1920x1036, 23,976 fps
Аудио: Eng, DTS, 768 kb/s (6 ch), 48 kHz
Формат субтитров: softsub (SRT)

MediaInfo

x264 [info]: frame I:804 Avg QP:14.87 size:235443
x264 [info]: frame P:33480 Avg QP:18.34 size:107648
x264 [info]: frame B:98788 Avg QP:20.39 size: 57374
Format : Matroska
Format version : Version 4 / Version 2
File size : 9.31 GiB
Duration : 1h 32mn
Overall bit rate : 14.4 Mbps
Movie name : Роналду. (Tonik)
Encoded date : UTC 2015-11-13 18:21:18
Writing application : mkvmerge v7.1.0 ('Good Love') 64bit built on Jul 27 2014 13:06:55
Writing library : libebml v1.3.0 + libmatroska v1.4.1
DURATION : 01:31:01.289000000
NUMBER_OF_FRAMES : 1100
NUMBER_OF_BYTES : 71242
_STATISTICS_WRITING_APP : mkvmerge v7.1.0 ('Good Love') 64bit built on Jul 27 2014 13:06:55
_STATISTICS_WRITING_DATE_UTC : 2015-11-13 18:21:18
_STATISTICS_TAGS : BPS DURATION NUMBER_OF_FRAMES NUMBER_OF_BYTES
Video
ID : 1
Format : AVC
Format/Info : Advanced Video Codec
Format profile : High@L4.1
Format settings, CABAC : Yes
Format settings, ReFrames : 4 frames
Codec ID : V_MPEG4/ISO/AVC
Duration : 1h 32mn
Bit rate : 13.4 Mbps
Width : 1 920 pixels
Height : 1 036 pixels
Display aspect ratio : 1.85:1
Frame rate mode : Constant
Frame rate : 23.976 fps
Color space : YUV
Chroma subsampling : 4:2:0
Bit depth : 8 bits
Scan type : Progressive
Bits/(Pixel*Frame) : 0.280
Stream size : 8.63 GiB (93%)
Writing library : x264 core 130 r2273 b3065e6
Encoding settings : cabac=1 / ref=4 / deblock=1:-3:-3 / analyse=0x3:0x12 / me=tesa / subme=11 / psy=1 / psy_rd=1.00:0.00 / mixed_ref=1 / me_range=24 / chroma_me=1 / trellis=2 / 8x8dct=1 / cqm=0 / deadzone=21,11 / fast_pskip=1 / chroma_qp_offset=-2 / threads=12 / lookahead_threads=1 / sliced_threads=0 / nr=0 / decimate=1 / interlaced=0 / bluray_compat=0 / constrained_intra=0 / bframes=6 / b_pyramid=2 / b_adapt=2 / b_bias=0 / direct=3 / weightb=1 / open_gop=0 / weightp=2 / keyint=240 / keyint_min=24 / scenecut=40 / intra_refresh=0 / rc_lookahead=60 / rc=crf / mbtree=1 / crf=16.0 / qcomp=0.60 / qpmin=0 / qpmax=69 / qpstep=4 / vbv_maxrate=62500 / vbv_bufsize=78125 / crf_max=0.0 / nal_hrd=none / ip_ratio=1.40 / aq=1:0.60
Language : English
Default : Yes
Forced : No
Color range : Limited
Color primaries : BT.709
Transfer characteristics : BT.709
Matrix coefficients : BT.709
Audio
ID : 2
Format : DTS
Format/Info : Digital Theater Systems
Mode : 16
Format settings, Endianness : Big
Codec ID : A_DTS
Duration : 1h 32mn
Bit rate mode : Constant
Bit rate : 768 Kbps
Channel(s) : 6 channels
Channel positions : Front: L C R, Side: L R, LFE
Sampling rate : 48.0 KHz
Bit depth : 24 bits
Compression mode : Lossy
Stream size : 508 MiB (5%)
Language : English
Default : Yes
Forced : No
Text #1
ID : 3
Format : UTF-8
Codec ID : S_TEXT/UTF8
Codec ID/Info : UTF-8 Plain Text
Language : Russian
Default : Yes
Forced : No
Text #2
ID : 4
Format : UTF-8
Codec ID : S_TEXT/UTF8
Codec ID/Info : UTF-8 Plain Text
Language : English
Default : No
Forced : No
Menu
00:00:00.000 : en:Chapter 1
00:06:54.330 : en:Chapter 2
00:15:05.821 : en:Chapter 3
00:21:44.344 : en:Chapter 4
00:29:44.073 : en:Chapter 5
00:38:14.542 : en:Chapter 6
00:46:42.966 : en:Chapter 7
00:52:37.070 : en:Chapter 8
01:01:05.828 : en:Chapter 9
01:07:12.153 : en:Chapter 10
01:15:41.703 : en:Chapter 11
01:24:29.105 : en:Chapter 12

Скриншоты

[Профиль] [ЛС]
Показать сообщения:    

Текущее время: Сегодня 14:53

Часовой пояс: GMT



Вы не можете начинать темы
Вы не можете отвечать на сообщения
Вы не можете редактировать свои сообщения
Вы не можете удалять свои сообщения
Вы не можете голосовать в опросах
Вы не можете прикреплять файлы к сообщениям
Вы не можете скачивать файлы