Ромовый дневник / The Rum Diary (2011) BDRip 1080p от NNNB | D, A

 
Автор Сообщение

Russian Mafia ®

Пол:

Стаж: 1 год 8 месяцев

Сообщений: 4257



Награды: 10 (Подробнее)

Top Releaser 3 (Количество: 1) Mega Seeder 3 (Количество: 1) Top Releaser 4 (Количество: 1)
Торрент-статистика

Создавать темы 09-Сен-2015 13:26

[Цитировать]

Ромовый дневник / The Rum Diary
«Всё на грани фола»
Русское название: Ромовый дневник
Оригинальное название: The Rum Diary
Год выпуска: 2010
Жанр: драма, комедия, приключения
Выпущено: США
Режиссер: Брюс Робинсон
В ролях: Джонни Депп , Майкл Рисполи , Аарон Экхарт , Эмбер Хёрд , Джованни Рибизи , Ричард Дженкинс , Амори Ноласко , Маршалл Белл , Билл Смитрович , Джулиан Холлоуэй , Бруно Айризэрри , Энцо Чиленти
Перевод: Дублированный, Авторский (одноголосый)

Сюжет фильма:
1960-й год. Талантливый журналист Пол Кэмп, которого достала лживая глянцевая жизнь Нью-Йорка, бросает работу в престижном издании и уезжает в Пуэрто-Рико, где ром льется рекой, где дешево все - машины, яхты, девушки, здесь саму жизнь продают за копейки...

Качество: BDRip 1080p
Формат: AVC (библиотека кодирования x.264)
Контейнер (Расширение): MKV
Видео: 1920x1040, 11860 Кбит/сек, 23,976 кадр/сек, 0,248 Бит/[Пиксели*Кадры]
Аудио №1: русский / AC3 / 5.1 / 48 kHz / 640 kbps / |Дублированный|
Аудио №2: русский / AC3 / 5.1 / 48 kHz / 640 kbps / |Авторский, Антон Киреев - по переводу Дмитрия Goblin'a Пучкова|
Аудио №3: английский / AC3 / 5.1 / 48 kHz / 640 kbps /
Субтитры: русские, английские
Навигация по главам(Чаптеры): есть
Продолжительность: 01:59:58

MediaInfo

Format : Matroska
Format version : Version 2
File size : 11.5 GiB
Duration : 1h 59mn
Overall bit rate : 13.8 Mbps
Movie name : Romovyj dnevnik.(2011).BDrip.1080p.[denis100]
Encoded date : UTC 2015-07-09 12:36:26
Writing application : mkvmerge v5.8.0 ('No Sleep / Pillow') built on Sep 2 2012 15:37:04
Writing library : libebml v1.2.3 + libmatroska v1.3.0
Video
ID : 1
Format : AVC
Format/Info : Advanced Video Codec
Format profile : High@L4.1
Format settings, CABAC : Yes
Format settings, ReFrames : 4 frames
Codec ID : V_MPEG4/ISO/AVC
Duration : 1h 59mn
Bit rate : 11.9 Mbps
Width : 1 920 pixels
Height : 1 040 pixels
Display aspect ratio : 16:9
Frame rate : 23.976 fps
Color space : YUV
Chroma subsampling : 4:2:0
Bit depth : 8 bits
Scan type : Progressive
Bits/(Pixel*Frame) : 0.248
Stream size : 9.71 GiB (84%)
Title : Romovyj dnevnik.(2011).BDrip.1080p.[denis100]
Writing library : x264 core 146 r2538 121396c
Encoding settings : cabac=1 / ref=4 / deblock=1:-3:-3 / analyse=0x3:0x133 / me=umh / subme=11 / psy=1 / psy_rd=1.00:0.10 / mixed_ref=1 / me_range=32 / chroma_me=1 / trellis=2 / 8x8dct=1 / cqm=0 / deadzone=21,11 / fast_pskip=0 / chroma_qp_offset=-3 / threads=6 / lookahead_threads=1 / sliced_threads=0 / nr=0 / decimate=1 / interlaced=0 / bluray_compat=0 / constrained_intra=0 / bframes=8 / b_pyramid=2 / b_adapt=2 / b_bias=0 / direct=3 / weightb=1 / open_gop=0 / weightp=2 / keyint=240 / keyint_min=23 / scenecut=40 / intra_refresh=0 / rc=2pass / mbtree=0 / bitrate=11860 / ratetol=1.0 / qcomp=0.60 / qpmin=0 / qpmax=69 / qpstep=4 / cplxblur=20.0 / qblur=0.5 / ip_ratio=1.40 / pb_ratio=1.30 / aq=1:0.90
Language : English
Default : Yes
Forced : No
Audio #1
ID : 2
Format : AC-3
Format/Info : Audio Coding 3
Mode extension : CM (complete main)
Codec ID : A_AC3
Duration : 1h 59mn
Bit rate mode : Constant
Bit rate : 640 Kbps
Channel(s) : 6 channels
Channel positions : Front: L C R, Side: L R, LFE
Sampling rate : 48.0 KHz
Bit depth : 16 bits
Compression mode : Lossy
Stream size : 549 MiB (5%)
Title : Дубляж
Language : Russian
Default : Yes
Forced : No
Audio #2
ID : 3
Format : AC-3
Format/Info : Audio Coding 3
Mode extension : CM (complete main)
Codec ID : A_AC3
Duration : 1h 59mn
Bit rate mode : Constant
Bit rate : 640 Kbps
Channel(s) : 6 channels
Channel positions : Front: L C R, Side: L R, LFE
Sampling rate : 48.0 KHz
Bit depth : 16 bits
Compression mode : Lossy
Stream size : 549 MiB (5%)
Title : Авторский, Антон Киреев
Language : Russian
Default : No
Forced : No
Audio #3
ID : 4
Format : AC-3
Format/Info : Audio Coding 3
Mode extension : CM (complete main)
Codec ID : A_AC3
Duration : 1h 59mn
Bit rate mode : Constant
Bit rate : 640 Kbps
Channel(s) : 6 channels
Channel positions : Front: L C R, Side: L R, LFE
Sampling rate : 48.0 KHz
Bit depth : 16 bits
Compression mode : Lossy
Stream size : 549 MiB (5%)
Language : English
Default : No
Forced : No
Text #1
ID : 5
Format : UTF-8
Codec ID : S_TEXT/UTF8
Codec ID/Info : UTF-8 Plain Text
Language : Russian
Default : No
Forced : No
Text #2
ID : 6
Format : UTF-8
Codec ID : S_TEXT/UTF8
Codec ID/Info : UTF-8 Plain Text
Language : English
Default : No
Forced : No
Menu
00:00:00.000 : en:Chapter 1
00:05:29.538 : en:Chapter 2
00:13:02.073 : en:Chapter 3
00:18:58.929 : en:Chapter 4
00:24:13.577 : en:Chapter 5
00:33:12.908 : en:Chapter 6
00:40:16.789 : en:Chapter 7
00:46:51.434 : en:Chapter 8
00:57:40.999 : en:Chapter 9
01:05:30.218 : en:Chapter 10
01:09:59.695 : en:Chapter 11
01:16:41.180 : en:Chapter 12
01:22:36.243 : en:Chapter 13
01:28:05.238 : en:Chapter 14
01:33:38.154 : en:Chapter 15
01:39:13.739 : en:Chapter 16
01:45:00.711 : en:Chapter 17
01:53:00.941 : en:Chapter 18

x264

x264 [info]: frame I:939 Avg QP:17.87 size:213323
x264 [info]: frame P:38858 Avg QP:19.43 size: 93484
x264 [info]: frame B:132787 Avg QP:21.96 size: 51469

Скриншоты

[Профиль] [ЛС]
Показать сообщения:    

Текущее время: Сегодня 00:18

Часовой пояс: GMT



Вы не можете начинать темы
Вы не можете отвечать на сообщения
Вы не можете редактировать свои сообщения
Вы не можете удалять свои сообщения
Вы не можете голосовать в опросах
Вы не можете прикреплять файлы к сообщениям
Вы не можете скачивать файлы