Роммель / Rommel (Николаус Штейн фон Каменски / Nikolaus Stein von Kamienski) [2012, Германия, Франция, Австрия, боевик, драма, военный, HDRip] AVO

 
Автор Сообщение

Virtuoz ®

Пол:

Стаж: 5 лет 5 месяцев

Сообщений: 3



Награды: Нет

Торрент-статистика

Создавать темы 29-Фев-2016 21:53

[Цитировать]

РоммельRommel- Страна: Германия, Франция, Австрия
Жанр: боевик, драма, военный, биография, история
Год выпуска: 2012
Продолжительность: 01:58:38-Перевод: Авторский (одноголосый закадровый) Ю. Сербин
Субтитры: нет
Режиссер: Николаус Штейн фон Каменски / Nikolaus Stein von Kamienski
В ролях: Ульрих Тукур, Тим Бергманн, Рольф Канис, Артур Клемт, Томас Лимпинзель, Патрик Мёллекен, Роберт Шупп, Питер Вульф, Хабертус Хартманн, Клаус Й. Берендт, Михаэль Кранц, Ганс Кремер-Описание: В январе 1944 Роммель был назначен командующим группой армий «В» в Северной Франции. Он попытался сделать «Атлантический вал» серьёзным препятствием для противника. Однако из-за стратегических разногласий с командующим всей войсковой группировкой во Франции - фельдмаршалом Рундштедтом, единый план обороны западной границы рейха не был выработан, что и привело к неоперативности и несогласованности действий немецких войск во время высадки союзников в Нормандии 6 июня 1944 года.-Релиз от: -

-

Доп. Информация

Сценарий: Николаус Штейн фон Каменски / Nikolaus Stein von Kamienski
Продюсер: Нико Хофманн / Nico Hofmann, Ариане Крампе / Ariane Krampe, Др. Юрген Шустер / Dr. Jürgen Schuster, Саша Швингел / Sascha Schwingel, Thomas Buchwalder
Оператор: Arthur W. Ahrweiler
Композитор: Джеки Энгелкен / Jacki Engelken, Ульрик Спис / Ulrik Spies
Мировая премьера: 1 ноября 2012
-Качество: HDRip (Исходник BDRip 1080p)
Контейнер: AVI
Видео: XviD, 720x400 (16:9), 2021 kbps, 25 fps, 0,281 bpp
Аудио: AC3 / 5.1 / 48 kHz / 448 kbps / 16 bit-

Media Info

General
Complete name : G:\Rommel.2012_HDRip.avi
Format : AVI
Format/Info : Audio Video Interleave
Format profile : OpenDML
File size : 2.06 GiB
Duration : 1h 58mn
Overall bit rate : 2 482 Kbps
Writing application : VirtualDubMod 1.5.10.3 | www.virtualdub-fr.org || (build 2550/release)
Writing library : VirtualDubMod build 2550/release
Video
ID : 0
Format : MPEG-4 Visual
Format profile : Advanced Simple@L5
Format settings, BVOP : 2
Format settings, QPel : No
Format settings, GMC : No warppoints
Format settings, Matrix : Custom
Codec ID : XVID
Codec ID/Hint : XviD
Duration : 1h 58mn
Bit rate : 2 021 Kbps
Width : 720 pixels
Height : 400 pixels
Display aspect ratio : 16:9
Frame rate : 25.000 fps
Color space : YUV
Chroma subsampling : 4:2:0
Bit depth : 8 bits
Scan type : Progressive
Compression mode : Lossy
Bits/(Pixel*Frame) : 0.281
Stream size : 1.68 GiB (81%)
Writing library : XviD 64
Audio
ID : 1
Format : AC-3
Format/Info : Audio Coding 3
Mode extension : CM (complete main)
Codec ID : 2000
Duration : 1h 58mn
Bit rate mode : Constant
Bit rate : 448 Kbps
Channel(s) : 6 channels
Channel positions : Front: L C R, Side: L R, LFE
Sampling rate : 48.0 KHz
Bit depth : 16 bits
Compression mode : Lossy
Stream size : 380 MiB (18%)
Alignment : Split accross interleaves
Interleave, duration : 40 ms (1.00 video frame)
Interleave, preload duration : 500 ms

Скриншот с названием фильма

Скриншоты

[Профиль] [ЛС]
Показать сообщения:    

Текущее время: Сегодня 16:41

Часовой пояс: GMT



Вы не можете начинать темы
Вы не можете отвечать на сообщения
Вы не можете редактировать свои сообщения
Вы не можете удалять свои сообщения
Вы не можете голосовать в опросах
Вы не можете прикреплять файлы к сообщениям
Вы не можете скачивать файлы