Роммель / Rommel (Николаус Штейн Фон Каменски / Nikolaus Stein von Kamienski) [2012, Германия, Франция, Австрия, биография, военный, исторический, BDRip 720p] DVO + AVO (Сербин) + Original ger + Sub eng

 
Автор Сообщение

Создавать темы 19-Июл-2014 15:16

Роммель / Rommel
Страна: Германия, Франция, Австрия
Жанр: биография, военный, исторический
Год выпуска: 2012
Продолжительность: 01:58:38
Перевод#1: Профессиональный (двухголосый закадровый)
Перевод#2: Авторский (одноголосый закадровый), Ю. Сербин
Cубтитры: английские
Оригинальная аудиодорожка: немецкий
Режиссер: Николаус Штейн Фон Каменски / Nikolaus Stein von Kamienski
В ролях: Ульрих Тукур, Тим Бергманн, Рольф Канис, Артур Клемт, Томас Лимпинзель, Патрик Мёллекен, Роберт Шупп, Питер Вульф, Хабертус Хартманн, Клаус Й. Берендт, Михаэль Кранц, Ганс Кремер, Питер Кремер, Вики Крипс, Оливер Негеле, Хари Принц, Беньямин Задлер
Описание: В январе 1944 Роммель был назначен командующим группой армий «В» в Северной Франции. Он попытался сделать «Атлантический вал» серьёзным препятствием для противника. Однако из-за стратегических разногласий с командующим всей войсковой группировкой во Франции - фельдмаршалом Рундштедтом, единый план обороны западной границы рейха не был выработан, что и привело к неоперативности и несогласованности действий немецких войск во время высадки союзников в Нормандии 6 июня 1944 года...

Доп. информация: за перевод Сербина благодарим пользователей HDTRACKER
Исходник: BDRemux 1080i
Тип релиза: BDRip 720p | sample
Контейнер: MKV
Видео кодек: x264
Видео: AVC 1280x720 (16:9), 25 fps, ~6150 Kbps, 0.26 bit/pixel
Аудио #1: Russian AC3 2ch 48kHz 192Kbps | DVO
Аудио #2: Russian AC3 6ch 48kHz 640Kbps | AVO Сербин
Аудио #3: German AC3 6ch 48kHz 640Kbps | Original
Формат субтитров: softsub (SRT)
Главы: есть

x264

--[Information] [25.09.2013 10:02:41] raw [info]: 1280x720p 1:1 @ 25/1 fps (cfr)
--[Information] [25.09.2013 10:02:41] x264 [info]: profile High, level 4.1
--[Information] [26.09.2013 1:14:51] x264 [info]: frame I:1348 Avg QP:15.32 size:141727
--[Information] [26.09.2013 1:14:51] x264 [info]: frame P:39344 Avg QP:16.45 size: 56555
--[Information] [26.09.2013 1:14:51] x264 [info]: frame B:137269 Avg QP:18.13 size: 22283
--[Information] [26.09.2013 1:14:51] x264 [info]: kb/s:6152.95

MediaInfo

General
Complete name : D:\...\Rommel.2012.720p.BluRay.x264.AC3.2xRus.Ger-E76.mkv
Format : Matroska
Format version : Version 2
File size : 6.32 GiB
Duration : 1h 58mn
Overall bit rate : 7 627 Kbps
Movie name : Rommel.2012.720p.BluRay.x264.AC3.2xRus.Ger-E76
Encoded date : UTC 2014-06-24 07:50:30
Writing application : mkvmerge v6.5.0 ('Isn't she lovely') built on Oct 20 2013 12:50:05
Writing library : libebml v1.3.0 + libmatroska v1.4.1
Video
ID : 1
Format : AVC
Format/Info : Advanced Video Codec
Format profile : High@L4.1
Format settings, CABAC : Yes
Format settings, ReFrames : 8 frames
Codec ID : V_MPEG4/ISO/AVC
Bit rate : 6 004 Kbps
Width : 1 280 pixels
Height : 720 pixels
Display aspect ratio : 16:9
Frame rate mode : Variable
Original frame rate : 25.000 fps
Color space : YUV
Chroma subsampling : 4:2:0
Bit depth : 8 bits
Scan type : Progressive
Title : Rommel (2012)
Writing library : x264 core 138 r2358kMod 9e941d1
Encoding settings : cabac=1 / ref=8 / deblock=1:-3:-3 / analyse=0x3:0x113 / me=umh / subme=11 / psy=1 / fade_compensate=0.00 / psy_rd=1.00:0.00 / mixed_ref=1 / me_range=48 / chroma_me=1 / trellis=2 / 8x8dct=1 / cqm=0 / deadzone=21,11 / fast_pskip=1 / chroma_qp_offset=-2 / threads=6 / lookahead_threads=1 / sliced_threads=0 / nr=0 / decimate=1 / interlaced=0 / bluray_compat=0 / constrained_intra=0 / bframes=10 / b_pyramid=2 / b_adapt=2 / b_bias=0 / direct=1 / weightb=1 / open_gop=0 / weightp=2 / keyint=250 / keyint_min=25 / scenecut=40 / intra_refresh=0 / rc_lookahead=0 / rc=crf / mbtree=0 / crf=17.5000 / qcomp=0.70 / qpmin=0 / qpmax=69 / qpstep=4 / vbv_maxrate=50000 / vbv_bufsize=62500 / crf_max=0.0 / nal_hrd=none / ip_ratio=1.40 / pb_ratio=1.30 / aq=3:1.00
Language : German
Default : Yes
Forced : No
Matrix coefficients : BT.709
Audio #1
ID : 2
Format : AC-3
Format/Info : Audio Coding 3
Mode extension : CM (complete main)
Format settings, Endianness : Big
Codec ID : A_AC3
Duration : 1h 58mn
Bit rate mode : Constant
Bit rate : 192 Kbps
Channel(s) : 2 channels
Channel positions : Front: L R
Sampling rate : 48.0 KHz
Bit depth : 16 bits
Compression mode : Lossy
Stream size : 163 MiB (3%)
Title : DVO
Language : Russian
Default : Yes
Forced : No
Audio #2
ID : 3
Format : AC-3
Format/Info : Audio Coding 3
Mode extension : CM (complete main)
Format settings, Endianness : Big
Codec ID : A_AC3
Duration : 1h 58mn
Bit rate mode : Constant
Bit rate : 640 Kbps
Channel(s) : 6 channels
Channel positions : Front: L C R, Side: L R, LFE
Sampling rate : 48.0 KHz
Bit depth : 16 bits
Compression mode : Lossy
Stream size : 543 MiB (8%)
Title : AVO Serbin
Language : Russian
Default : No
Forced : No
Audio #3
ID : 4
Format : AC-3
Format/Info : Audio Coding 3
Mode extension : CM (complete main)
Format settings, Endianness : Big
Codec ID : A_AC3
Duration : 1h 58mn
Bit rate mode : Constant
Bit rate : 640 Kbps
Channel(s) : 6 channels
Channel positions : Front: L C R, Side: L R, LFE
Sampling rate : 48.0 KHz
Bit depth : 16 bits
Compression mode : Lossy
Stream size : 543 MiB (8%)
Title : Original
Language : German
Default : No
Forced : No
Text
ID : 5
Format : UTF-8
Codec ID : S_TEXT/UTF8
Codec ID/Info : UTF-8 Plain Text
Language : English
Default : No
Forced : No
Menu
00:00:00.000 : en:Chapter 01
00:10:30.720 : en:Chapter 02
00:21:11.760 : en:Chapter 03
00:32:20.000 : en:Chapter 04
00:41:59.720 : en:Chapter 05
00:52:53.360 : en:Chapter 06
01:02:35.320 : en:Chapter 07
01:13:45.800 : en:Chapter 08
01:22:42.800 : en:Chapter 09
01:34:27.080 : en:Chapter 10
01:42:56.840 : en:Chapter 11
01:51:48.280 : en:Chapter 12

Скриншоты





vs source
*Перезалито 24.06, прикручена двухголоска
 
Показать сообщения:    

Текущее время: Сегодня 20:01

Часовой пояс: GMT



Вы не можете начинать темы
Вы не можете отвечать на сообщения
Вы не можете редактировать свои сообщения
Вы не можете удалять свои сообщения
Вы не можете голосовать в опросах
Вы не можете прикреплять файлы к сообщениям
Вы не можете скачивать файлы