Ромео должен умереть / Romeo Must Die (2000) BDRip 720p от New-Team | D

 
Автор Сообщение

sergej644 ®

Пол:

Стаж: 4 года 11 месяцев

Сообщений: 6046

Откуда: Soviet Union



Награды: Нет

Торрент-статистика

Создавать темы 10-Фев-2015 10:19

[Цитировать]

Страна: США
Производство: Silver Pictures, Warner Bros. Pictures Co.
Жанр: боевик, триллер, криминал
Год выпуска: 2005
Продолжительность: 01:55:04
Перевод: Профессиональный (полное дублирование)
Оригинальная аудиодорожка: английский
Cубтитры: русский, английский
Режиссер: Андржей Бартковяк / Andrzej Bartkowiak
В ролях:
Джет Ли, Али́я Да́на Хо́утон, Расселл Вонг, Айзэйя Вашингтон, DMX, Делрой Линдо, Д.Б. Вудсайд, Генри О, Джонкит Ли, Эдоардо Баллерини, Грейс Пак...
Роли дублировали:
Олег Вирозуб, Ольга Голованова, Андрей Градов, Вячеслав Баранов, Владимир Еремин...
Описание:
У них есть оружие. У них есть деньги. Но у них нет никаких шансов против бывшего полицейского Хан Синга. Джет Ли играет крутого и готового на все Хана, не без взаимности влюбленного в Триш О Дэй, несмотря на то, что их семьи ведут жестокую войну за передел в Окленде. Опасности объединяют влюбленных, когда они пытаются выяснить истинные причины кровавых разборок.-
-Исходник: BDRemux 1080p
Тип релиза: BDRip 720p
Контейнер: MKV
Видео: 1280x532 (2,40:1), 23,976 fps, H264 ~ 2848 kbps avg, 0.174 bit/pixel
Аудио: 48 kHz, Dolby Digital AC3 5.1, 384 kbps DUB
Аудио: 48 kHz, Dolby Digital AC3 5.1, 384 kbps Английский
Оригинальная навигация по главам: есть
Субтитры: SoftSub (srt)

MediaInfo

Общее
Полное имя : Romeo.dolzhen.umeret.2000.BDRip720_[New-team]_by_AVP_Studio.mkv
Формат : Matroska
Версия формата : Version 4 / Version 2
Размер файла : 2,91 Гбайт
Продолжительность : 1 ч. 55 м.
Общий поток : 3617 Кбит/сек
Название фильма : Romeo.dolzhen.umeret.2000.BDRip720_[New-team]_by_AVP_Studio
Дата кодирования : UTC 2014-10-05 22:12:19
Программа кодирования : mkvmerge v7.2.0 ('On Every Street') 64bit built on Sep 13 2014 15:52:10
Библиотека кодирования : libebml v1.3.0 + libmatroska v1.4.1
DURATION : 01:54:23.314000000
NUMBER_OF_FRAMES : 1085
NUMBER_OF_BYTES : 32811
_STATISTICS_WRITING_APP : mkvmerge v7.2.0 ('On Every Street') 64bit built on Sep 13 2014 15:52:10
_STATISTICS_WRITING_DATE_UTC : 2014-10-05 22:12:19
_STATISTICS_TAGS : BPS DURATION NUMBER_OF_FRAMES NUMBER_OF_BYTES
Видео
Идентификатор : 1
Формат : AVC
Формат/Информация : Advanced Video Codec
Профиль формата : High@L4.1
Параметр CABAC формата : Да
Параметр ReFrames формата : 6 кадров
Идентификатор кодека : V_MPEG4/ISO/AVC
Продолжительность : 1 ч. 55 м.
Битрейт : 2848 Кбит/сек
Ширина : 1280 пикселей
Высота : 532 пикселя
Соотношение сторон : 2,40:1
Режим частоты кадров : Постоянный
Частота кадров : 23,976 кадра/сек
Цветовое пространство : YUV
Субдискретизация насыщенности : 4:2:0
Битовая глубина : 8 бит
Тип развёртки : Прогрессивная
Бит/(Пиксели*Кадры) : 0.174
Размер потока : 2,23 Гбайт (77%)
Заголовок : Источник BDRemux
Библиотека кодирования : x264 core 138 r2356 a1d3d17
Настройки программы : cabac=1 / ref=6 / deblock=1:-3:-3 / analyse=0x3:0x113 / me=umh / subme=10 / psy=1 / psy_rd=1.00:0.05 / mixed_ref=1 / me_range=32 / chroma_me=1 / trellis=2 / 8x8dct=1 / cqm=0 / deadzone=21,11 / fast_pskip=0 / chroma_qp_offset=-3 / threads=6 / lookahead_threads=1 / sliced_threads=0 / nr=0 / decimate=0 / interlaced=0 / bluray_compat=0 / constrained_intra=0 / bframes=8 / b_pyramid=2 / b_adapt=2 / b_bias=0 / direct=3 / weightb=1 / open_gop=0 / weightp=2 / keyint=240 / keyint_min=24 / scenecut=40 / intra_refresh=0 / rc_lookahead=40 / rc=2pass / mbtree=1 / bitrate=2848 / ratetol=1.0 / qcomp=0.60 / qpmin=10 / qpmax=51 / qpstep=4 / cplxblur=20.0 / qblur=0.5 / vbv_maxrate=50000 / vbv_bufsize=50000 / nal_hrd=none / ip_ratio=1.40 / aq=1:0.80
Язык : English
Default : Да
Forced : Нет
Аудио #1
Идентификатор : 2
Формат : AC-3
Формат/Информация : Audio Coding 3
Расширение режима : CM (complete main)
Параметр Endianness формата : Big
Идентификатор кодека : A_AC3
Продолжительность : 1 ч. 55 м.
Вид битрейта : Постоянный
Битрейт : 384 Кбит/сек
Каналы : 6 каналов
Расположение каналов : Front: L C R, Side: L R, LFE
Частота : 48,0 КГц
Битовая глубина : 16 бит
Метод сжатия : С потерями
Размер потока : 316 Мбайт (11%)
Заголовок : Источник BDRemux DUB
Язык : Russian
Default : Да
Forced : Нет
Аудио #2
Идентификатор : 3
Формат : AC-3
Формат/Информация : Audio Coding 3
Расширение режима : CM (complete main)
Параметр Endianness формата : Big
Идентификатор кодека : A_AC3
Продолжительность : 1 ч. 55 м.
Вид битрейта : Постоянный
Битрейт : 384 Кбит/сек
Каналы : 6 каналов
Расположение каналов : Front: L C R, Side: L R, LFE
Частота : 48,0 КГц
Битовая глубина : 16 бит
Метод сжатия : С потерями
Размер потока : 316 Мбайт (11%)
Заголовок : Источник BDRemux
Язык : English
Default : Нет
Forced : Нет
Текст #1
Идентификатор : 4
Формат : UTF-8
Идентификатор кодека : S_TEXT/UTF8
Идентификатор кодека/Информация : UTF-8 Plain Text
Заголовок : Источник BDRemux SoftSub (srt)
Язык : Russian
Default : Нет
Forced : Нет
Текст #2
Идентификатор : 5
Формат : UTF-8
Идентификатор кодека : S_TEXT/UTF8
Идентификатор кодека/Информация : UTF-8 Plain Text
Заголовок : Источник BDRemux SoftSub (srt)
Язык : English
Default : Нет
Forced : Нет
Меню
00:00:00.000 : en:Chapter1
00:02:38.366 : en:Chapter2
00:07:15.560 : en:Chapter3
00:11:07.124 : en:Chapter4
00:13:12.625 : en:Chapter5
00:15:02.026 : en:Chapter6
00:16:57.683 : en:Chapter7
00:18:46.291 : en:Chapter8
00:21:11.019 : en:Chapter9
00:22:36.355 : en:Chapter10
00:27:25.226 : en:Chapter11
00:29:09.289 : en:Chapter12
00:30:58.314 : en:Chapter13
00:33:52.321 : en:Chapter14
00:36:12.086 : en:Chapter15
00:39:40.211 : en:Chapter16
00:42:30.506 : en:Chapter17
00:44:34.380 : en:Chapter18
00:47:22.297 : en:Chapter19
00:48:59.186 : en:Chapter20
00:50:47.461 : en:Chapter21
00:54:46.241 : en:Chapter22
00:56:32.680 : en:Chapter23
01:00:40.595 : en:Chapter24
01:03:14.248 : en:Chapter25
01:05:33.888 : en:Chapter26
01:09:48.559 : en:Chapter27
01:12:52.534 : en:Chapter28
01:14:24.084 : en:Chapter29
01:17:53.502 : en:Chapter30
01:21:09.281 : en:Chapter31
01:25:29.290 : en:Chapter32
01:29:56.599 : en:Chapter33
01:34:36.712 : en:Chapter34
01:37:07.404 : en:Chapter35
01:40:55.215 : en:Chapter36
01:43:13.979 : en:Chapter37
01:47:47.419 : en:Chapter38
01:49:59.634 : en:Chapter39
01:55:02.896 : en:Chapter40

Скриншоты

[Профиль] [ЛС]
Показать сообщения:    

Текущее время: Сегодня 00:38

Часовой пояс: GMT



Вы не можете начинать темы
Вы не можете отвечать на сообщения
Вы не можете редактировать свои сообщения
Вы не можете удалять свои сообщения
Вы не можете голосовать в опросах
Вы не можете прикреплять файлы к сообщениям
Вы не можете скачивать файлы