Ромашка, кактус, маргаритка (Александр Итыгилов) [2009, Россия, Украина, Мелодрама, драма, комедия, SATRip] Original (rus)

 
Автор Сообщение

TorrentFilm ®

Пол:

Стаж: 2 года

Сообщений: 7741



Награды: Нет

Торрент-статистика

Создавать темы 08-Мар-2015 00:01

[Цитировать]

Ромашка, кактус, маргаритка
Выпущено: Россия, Украина, Новая студия
Жанр: Мелодрама, драма, комедия
Год выпуска: 2009
Продолжительность: 01:28:25
Перевод: Не требуется
Cубтитры: Нет
Режиссер: Александр Итыгилов мл.
В ролях: Марина Коняшкина, Андрей Чернышов, Остап Ступка, Наталья Унгард, Сергей Шустицкий, Юлия Волчкова, Владимир Горянский, Дмитрий Коляденко
Описание: У Маргариты Федотовой наступила полоса неудач. Во-первых, она повздорила с руководителем школы танцев, где занималась степом, во-вторых, ее уволили за то, что упустила выгодного клиента, чем нанесла ущерб компании, и в довершение ссора с новым соседом по дому, который то включает громкую музыку, то, по ее мнению, откровенно ей хамит. Волею судеб сосед станет ее новым начальником...

Качество видео: SATRip
Формат видео: AVI
Видео: XviD, 2233 Кбит/с, 720x400 (16:9), 25 кадр/с
Аудио: Русский, MP3, 48000 Гц, 128 Кбит/с, 2 канала (Стерео)

Автор рипа - ivandubskoj

MediaInfo

General
Complete name : Romashka.kaktus.margaritka.2009.SATRip.avi
Format : AVI
Format/Info : Audio Video Interleave
File size : 1.46 GiB
Duration : 1h 28mn
Overall bit rate : 2 371 Kbps
Writing application : VirtualDubMod 1.5.10.3 (build 2550/release)
Writing library : VirtualDubMod build 2550/release
Copyright : rip by ivandubskoj
Video
ID : 0
Format : MPEG-4 Visual
Format profile : Advanced Simple@L5
Format settings, BVOP : 1
Format settings, QPel : No
Format settings, GMC : No warppoints
Format settings, Matrix : Default (MPEG)
Codec ID : XVID
Codec ID/Hint : XviD
Duration : 1h 28mn
Bit rate : 2 233 Kbps
Width : 720 pixels
Height : 400 pixels
Display aspect ratio : 16:9
Frame rate : 25.000 fps
Color space : YUV
Chroma subsampling : 4:2:0
Bit depth : 8 bits
Scan type : Progressive
Compression mode : Lossy
Bits/(Pixel*Frame) : 0.310
Stream size : 1.38 GiB (94%)
Writing library : XviD 73
Audio
ID : 1
Format : MPEG Audio
Format version : Version 1
Format profile : Layer 3
Codec ID : 55
Codec ID/Hint : MP3
Duration : 1h 28mn
Bit rate mode : Constant
Bit rate : 128 Kbps
Channel(s) : 2 channels
Sampling rate : 48.0 KHz
Compression mode : Lossy
Stream size : 81.0 MiB (5%)
Alignment : Aligned on interleaves
Interleave, duration : 40 ms (1.00 video frame)
Interleave, preload duration : 504 ms
Writing library : LAME3.99r
Encoding settings : -m s -V 4 -q 0 -lowpass 17 -b 128

Скриншот c названием фильма

Скриншоты

[Профиль] [ЛС]

Создавать темы 06-Авг-2015 22:42 (спустя 4 месяца 29 дней)

Топик был перенесен из форума Фильмы до 2014 года в форум Фильмы до 2012 года
sergej644
 

Создавать темы 12-Июн-2016 08:49 (спустя 1 год 3 месяца)

Топик был перенесен из форума Фильмы 2011 года в форум Фильмы 2009 года
Russian Mafia
 
Кто просматривает тему:

Показать сообщения:    

Текущее время: Сегодня 10:31

Часовой пояс: GMT



Вы не можете начинать темы
Вы не можете отвечать на сообщения
Вы не можете редактировать свои сообщения
Вы не можете удалять свои сообщения
Вы не можете голосовать в опросах
Вы не можете прикреплять файлы к сообщениям
Вы не можете скачивать файлы