Роман с кокаином (Геннадий Сидоров) [2013, Россия, драма, DVD5 (Сжатый)] исх. R5, Original Rus

 
Автор Сообщение

reversefile ®

Пол:

Стаж: 4 года 5 месяцев

Сообщений: 842

Откуда: ReverseFile.org



Награды: Нет

Торрент-статистика

Создавать темы 25-Июл-2014 01:06

[Цитировать]

-Роман с кокаином- Страна: Россия
Студия: Alti Films
Жанр: Драма
Год выпуска: 2013
Продолжительность: 01:40:58
Перевод: Оригинал [лицензия]
Cубтитры: нет
Оригинальная аудиодорожка: русская
Режиссер: Геннадий Сидоров
В ролях: Игорь Триф, Ксения Собчак, Кирилл Плетнёв, Владимир Яглыч, Галина Звягинцева, Наталья Коляканова, Янис Политов, Валентина Березуцкая, Геннадий Сидоров, Далер Маджидов...
Описание: Вадим Масленников, главный герой кинокартины, — наш современник. Такой же как мы, вернее, как многие из нас. Чей то сын, чей-то друг, чей-то враг, чей-то любимый…
А правильно ли он живет? А как нужно жить? Так, чтобы след на земле для потомков оставить? И не в буквальном смысле землю нашу топтать, а чтобы прожить достойно и самое дорогое не растерять. А нужно ли это вообще? А главное — кому нужно?
Череда извечных вопросов: важных, насущных и очень простых — терзают его мысли, соблазны рвут его душу. Он пытается найти ответы, но попадает в круговорот непонимания, жестокости, безразличия, разочарования и насилия. Насилия над самим собой, над собственным Я.
И все же он будет пытаться жить, любить, страдать, терять и ненавидеть… Но сможет ли он…? И хватит ли у него сил вернуться, откуда обычно возврата нет…-Дата российской премьеры: 16 января 2014, «Alti Films»
Дата выхода DVD релиза: 20 февраля 2014, «CD Land»
-Качество: DVD5
Формат: DVD-Video
Видео: MPEG2, 720x576@1024x576 (PAL 16:9), ~6660 Кбит/сек
Аудио: AC3 5.1, 448 Кбит/сек [Русский]

DVDInfo

Title:
Size: 4.37 Gb ( 4 577 292 KBytes ) - DVD-5
Enabled regions: 1, 2, 3, 4, 5, 6, 7, 8
VTS_01 :
Play Length: 01:40:58
Video: PAL 16:9 (720x576) VBR, Auto Pan&Scan
Audio:
Russian (Dolby AC3, 6 ch)
Menu Video:
NTSC 4:3 (720x480) VBR
Auto Pan&Scan, Auto Letterboxed
Menu Language Unit :
Chapter (PTT) Menu
Root Menu

MediaInfo

Общее
Полное имя : C:\VIDEO\Роман с кокаином (2013) DVD5\VIDEO_TS\VTS_01_1.VOB
Формат : MPEG-PS
Размер файла : 1024 Мбайт
Продолжительность : 19 м.
Режим общего битрейта : Переменный
Общий поток : 7252 Кбит/сек
Видео
Идентификатор : 224 (0xE0)
Формат : MPEG Video
Версия формата : Version 2
Профиль формата : Main@Main
Параметр BVOP формата : Да
Параметр матрицы формата : По умолчанию
Параметр GOP формата : Variable
Продолжительность : 19 м.
Вид битрейта : Переменный
Битрейт : 6660 Кбит/сек
Максимальный битрейт : 8000 Кбит/сек
Ширина : 720 пикселей
Высота : 576 пикселей
Соотношение сторон : 16:9
Частота кадров : 25,000 кадров/сек
Стандарт вещания : PAL
Цветовое пространство : YUV
Субдискретизация насыщенности : 4:2:0
Битовая глубина : 8 бит
Тип развёртки : Прогрессивная
Метод сжатия : С потерями
Бит/(Пиксели*Кадры) : 0.642
Временной код первого кадра : 00:00:00:00
Оригинал временного кода : Group of pictures header
Размер потока : 940 Мбайт (92%)
Аудио
Идентификатор : 189 (0xBD)-128 (0x80)
Формат : AC-3
Формат/Информация : Audio Coding 3
Расширение режима : CM (complete main)
Параметр Endianness формата : Big
Режим смешивания : DVD-Video
Продолжительность : 19 м.
Вид битрейта : Постоянный
Битрейт : 448 Кбит/сек
Каналы : 6 каналов
Расположение каналов : Front: L C R, Side: L R, LFE
Частота : 48,0 КГц
Битовая глубина : 16 бит
Метод сжатия : С потерями
Размер потока : 63,2 Мбайт (6%)
Меню

Лог кодирования

[18:56:55] Phase I, PREPARATION started.
- DVD-RB v1.28.2
- AVISYNTH 2.6.0.3
- CCE 1.0.1.9 encoder selected.
- "Adaptive Quantizer Matrices" is enabled.
- Source: MUXMAN
- VTS_01: 2 744 416 sectors.
-- Scanning and writing .D2V & .AVS files
-- Processed 151 470 frames.
-- Building .AVS and .ECL files
- Reduction Level for DVD-5: 82,0%
- Overall Bitrate : 5 683Kbs
- Space for Video : 4 203 148KB
- Redistributing using Base_Q: 18
- HIGH/LOW/TYPICAL Bitrates: 7 113/4 282/5 683 Kbs
[19:26:26] Phase I, PREPARATION completed in 30 minutes.
[19:29:27] Phase II ENCODING started
- Extracting Video for VTS_01 segment 0
- Creating M2V for VTS_01 segment 1
- Extracting Video for VTS_01 segment 2
- Creating M2V for VTS_01 segment 3
- Creating M2V for VTS_01 segment 4
- Creating M2V for VTS_01 segment 5
- Creating M2V for VTS_01 segment 6
- Creating M2V for VTS_01 segment 7
[21:39:13] Phase II ENCODING completed in 130 minutes.
[21:39:21] Phase III, REBUILD started.
- Copying IFO, BUP, and unaltered files...
- Processing VTS_01
- Reading/processing TMAP table...
- Rebuilding seg 0 VOBID 1 CELLID 1
- Rebuilding seg 1 VOBID 1 CELLID 2
- Rebuilding seg 2 VOBID 1 CELLID 3
- Rebuilding seg 3 VOBID 1 CELLID 4
- Rebuilding seg 4 VOBID 1 CELLID 5
- Rebuilding seg 5 VOBID 1 CELLID 6
- Rebuilding seg 6 VOBID 1 CELLID 7
- Rebuilding seg 7 VOBID 1 CELLID 8
- Updating NAVPACKS for VOBID_01
- Updated VTS_C_ADT.
- Updated VTS_VOBU_ADMAP.
- Updated IFO: VTS_01_0.IFO
- Updating TMAP table...
- Correcting VTS Sectors...
[21:50:18] Phase III, REBUILD completed in 11 minutes.
Done.

Дополнительная информация

Исходник: http://torrentfilm.net/forum/viewtopic.php?t=4673495
Удалена вся реклама, пред. надписи и допы. Команды диска переписаны заново, оставлен один VTS. Меню обездвижено. Кнопка ненужная на главном меню затерта, лишние элементы удалены. Использованы программы DVDRemake, MuxMan и Фотошоп. При помощи DVDRebuilder в связке с ССЕ сжато видео диска на 18.0%.
Скриншот финального проекта:
За DVD5 спасибо большое avproh

-

Скриншоты меню

Скриншоты

[Профиль] [ЛС]

Создавать темы 06-Авг-2015 23:40 (спустя 1 год)

Топик был перенесен из форума Фильмы (HD DVD, Blu-ray и BDRemux) в форум Фильмы (DVD 5/9)
sergej644
 
Показать сообщения:    

Текущее время: Сегодня 00:33

Часовой пояс: GMT



Вы не можете начинать темы
Вы не можете отвечать на сообщения
Вы не можете редактировать свои сообщения
Вы не можете удалять свои сообщения
Вы не можете голосовать в опросах
Вы не можете прикреплять файлы к сообщениям
Вы не можете скачивать файлы