Романтическая комедия / Romantik Komedi (Кетче / Ketche) [2010, Турция, Мелодрама, комедия, WEB-DLRip] VO (Галина Мительман)

 
Автор Сообщение

painkiller ®

Стаж: 2 года 3 месяца

Сообщений: 582



Награды: Нет

Торрент-статистика

Создавать темы 14-Авг-2014 09:11

[Цитировать]

Романтическая комедия / Romantik Komedi
Страна: Турция, Boyut Film
Жанр: Мелодрама, комедия
Год выпуска: 2010
Продолжительность: 01:50:26
Перевод: Одноголосый закадровый (Галина Мительман)
Cубтитры: нет
Оригинальная аудиодорожка: нет
Режиссер: Кетче / Ketche
В ролях: Седеф Авджи, Мерт Явурджан, Синем Кобал, Бурджу Кара, Джемаль Хюнал, Бегюм Кютюк, Энгин Алтан Дюзятал, Бурсу Кара, Асли Сахин, Гюрген Оз, Кубилай Пенбеклиоглу, Каан Карлык, Давут Мерт Тосун
Описание: Эсра, Дидем и Зейнеп - три близких подруги, которые живут вместе, но у каждой совершенно своя судьба и жизнь каждой отличаются в корне от жизни своих подруг. Однажды Зейнеп решила изменить что-то в своей жизни, решив выйти замуж и это послужило, толчком для того, чтобы подруги тоже последовали ее примеру. В один прекрасный момент Эсра решает уйти с работы и начать новую жизнь. Она устраивается на работу в рекламной компании и влюбляется в директора компании Мерта, в то время как Дидем теряет голову от компаньона Мерта и его друга Джема, который ко всему прочему, является еще и актером… Девушкам предстоит пройти много разных приключений, недоразумений, разочарований, пока настоящая любовь не настигнет их.
Доп. информация:
Релиз киноклуба "Феникс. Автор рипа и синхронизация звука - shachter58. Озвучено Галиной Мительман по переводу Анастасии Горбанёвой для сайта Wide World Passion
Сэмпл: http://multi-up.com/983519
Качество видео: WEB-DLRip
Формат видео: AVI
Видео: MPEG-4 Visual, XviD, 1609 Кбит/с, 25.000 fps, 720x384, Bits/(Pixel*Frame)-0.233
Аудио: Audio Coding 3, AC-3, 2 channels, 48.0 KHz, 192 Kbps - Русский

MediaInfo

General
Complete name : F:\КИНО ТУРЦИИ\ГОТОВЫЕ РАЗДАЧИ ФИЛЬМОВ\Romantik.komedy.L1.russ.2010.Web-DLRip.Fenixclub.avi
Format : AVI
Format/Info : Audio Video Interleave
File size : 1.40 GiB
Duration : 1h 50mn
Overall bit rate : 1 811 Kbps
Video #0
ID : 0
Format : MPEG-4 Visual
Format profile : Advanced Simple@L5
Format settings, BVOP : 2
Format settings, QPel : No
Format settings, GMC : No warppoints
Format settings, Matrix : Default (H.263)
Codec ID : XVID
Codec ID/Hint : XviD
Duration : 1h 50mn
Bit rate : 1 609 Kbps
Width : 720 pixels
Height : 384 pixels
Display aspect ratio : 1.85:1
Frame rate : 25.000 fps
Color space : YUV
Chroma subsampling : 4:2:0
Bit depth : 8 bits
Scan type : Progressive
Compression mode : Lossy
Bits/(Pixel*Frame) : 0.233
Stream size : 1.24 GiB (89%)
Writing library : XviD 64
Audio #1
ID : 1
Format : AC-3
Format/Info : Audio Coding 3
Mode extension : CM (complete main)
Format settings, Endianness : Big
Codec ID : 2000
Duration : 1h 50mn
Bit rate mode : Constant
Bit rate : 192 Kbps
Channel(s) : 2 channels
Channel positions : Front: L R
Sampling rate : 48.0 KHz
Bit depth : 16 bits
Compression mode : Lossy
Stream size : 152 MiB (11%)
Alignment : Split accross interleaves
Interleave, duration : 40 ms (1.00 video frame)
Interleave, preload duration : 500 ms

Скриншот c названием фильма

Скриншоты


[Профиль] [ЛС]

Создавать темы 06-Авг-2015 23:17 (спустя 11 месяцев 23 дня)

Топик был перенесен из форума Фильмы до 2014 года в форум Фильмы до 2012 года
sergej644
 

Создавать темы 12-Июн-2016 07:54 (спустя 1 год 9 месяцев)

Топик был перенесен из форума Фильмы 2011 года в форум Фильмы 2010 года
Russian Mafia
 
Показать сообщения:    

Текущее время: Сегодня 23:31

Часовой пояс: GMT



Вы не можете начинать темы
Вы не можете отвечать на сообщения
Вы не можете редактировать свои сообщения
Вы не можете удалять свои сообщения
Вы не можете голосовать в опросах
Вы не можете прикреплять файлы к сообщениям
Вы не можете скачивать файлы