Роль музыка в жизни общества (Артель КОБ-Медиа) [31.05.2015, Документальный, FullHD]

 
Автор Сообщение

TorrentFilm ®

Пол:

Стаж: 2 года

Сообщений: 7741



Награды: Нет

Торрент-статистика

Создавать темы 01-Июн-2015 00:04

[Цитировать]

Роль музыка в жизни общества (Артель КОБ-Медиа)
Дата/Год выпуска: 31.05.2015
Страна: Россия
Жанр: Документальный
Продолжительность: 01:40:25
Перевод: Не требуется
Оригинальная аудиодорожка: русский
Режиссер: Артель КОБ-Медиа
Описание: В нашем фильме мы поговорим о положительных тенденциях в современной музыке, появление которых увеличивает людям шанс измениться к лучшему. Эти тенденции прослеживаются во всех направлениях, в том числе, в рэпе и роке, которые часто выступают как форма протеста против сложившейся в обществе несправедливости. Многие современные коллективы своей задачей ставят помочь людям задуматься над происходящим, чтобы изменить мир к лучшему. Почему в последнее время многие коллективы меняют направление своего творчества с растлевающего на позитивно-укрепляющее?
Мы рассмотрим, какие подводные камни поджидают начинающих исполнителей, почему самые благие устремления оборачиваются довольно тривиальным финалом? Чего не хватает многим коллективам для того, чтобы быть в тренде и не отставать от современного состояния общества? Может ли настоящее творчество быть вне политики? Что такое музыка и в чём её предназначение?
качество: FullHD
формат: MP4
Видео: H264, (1920x1080), (16:9), 179000kbps, 25fps
Аудио: AAC, 318kbps, 44.1kHz 2ch

MediaInfo

ОбщееПолное имя : E:\Projects VIDEO\_КОБ-Медиа\Роль музыки в жизни общества\Готовое\Роль музыки в жизни общества 1080p.mp4Формат : MPEG-4Профиль формата : Base Media / Version 2Идентификатор кодека : mp42Размер файла : 12,8 ГбайтПродолжительность : 1 ч. 40 м.Режим общего битрейта : ПеременныйОбщий поток : 18,2 Мбит/секДата кодирования : UTC 2015-05-31 13:06:19Дата пометки : UTC 2015-05-31 13:14:08©TIM : 00:00:00:00©TSC : 25©TSZ : 1
ВидеоИдентификатор : 1Формат : AVCФормат/Информация : Advanced Video CodecПрофиль формата : High@L4.2Параметр CABAC формата : ДаПараметр ReFrames формата : 3 кадраИдентификатор кодека : avc1Идентификатор кодека/Информация : Advanced Video CodingПродолжительность : 1 ч. 40 м.Вид битрейта : ПеременныйБитрейт : 17,9 Мбит/секМаксимальный битрейт : 24,0 Мбит/секШирина : 1920 пикселейВысота : 1080 пикселейСоотношение сторон : 16:9Режим частоты кадров : ПостоянныйЧастота кадров : 25,000 кадров/секСтандарт вещания : PALЦветовое пространство : YUVСубдискретизация насыщенности : 4:2:0Битовая глубина : 8 битТип развёртки : ПрогрессивнаяБит/(Пиксели*Кадры) : 0.345Размер потока : 12,5 Гбайт (98%)Язык : EnglishДата кодирования : UTC 2015-05-31 13:06:19Дата пометки : UTC 2015-05-31 13:06:19Цветовой диапазон : LimitedОсновные цвета : BT.709Характеристики трансфера : BT.709Коэффициенты матрицы : BT.709
АудиоИдентификатор : 2Формат : AACФормат/Информация : Advanced Audio CodecПрофиль формата : LCИдентификатор кодека : 40Продолжительность : 1 ч. 40 м.Продолжительность оригинала : 1 ч. 40 м.Вид битрейта : ПеременныйБитрейт : 318 Кбит/секМаксимальный битрейт : 400 Кбит/секКаналы : 2 каналаРасположение каналов : Front: L RЧастота : 44,1 КГцМетод сжатия : С потерямиРазмер потока : 228 Мбайт (2%)Размер потока оригинала : 228 Мбайт (2%)Язык : EnglishДата кодирования : UTC 2015-05-31 13:06:19Дата пометки : UTC 2015-05-31 13:06:19

Скриншоты

[Профиль] [ЛС]
Кто просматривает тему:

Показать сообщения:    

Текущее время: Сегодня 10:34

Часовой пояс: GMT



Вы не можете начинать темы
Вы не можете отвечать на сообщения
Вы не можете редактировать свои сообщения
Вы не можете удалять свои сообщения
Вы не можете голосовать в опросах
Вы не можете прикреплять файлы к сообщениям
Вы не можете скачивать файлы