Рок-звезда / Rock Star (2001) BDRip-AVC от 0ptimus | D, P2, A

 
Автор Сообщение

Белочка ®

Пол:

Стаж: 5 лет 1 месяц

Сообщений: 2089



Награды: 1 (Подробнее)

Girls (Количество: 1)
Торрент-статистика

Создавать темы 21-Окт-2014 14:48

[Цитировать]

Рок-звезда
| Rock Star |

Информация о фильме
Название: Рок-звезда
Оригинальное название: Rock Star
Год выхода: 2001
Жанр: драма, комедия, музыка
Режиссер: Стивен Херек
В ролях: Марк Уолберг, Дженнифер Энистон, Доминик Уэст, Джейсон Бонем, Джефф Пилсон, Закк Уайлд, Тимоти Сполл, Блас Елиас, Ник Катанезе
О фильме:
Днем Крис Коул занимается починкой копировальной техники. По ночам он подражает рок-группе «Steel Dragon» самой крутой в мире «тяжелого металла». Неожиданно ему представилась удивительная возможность: стать новым солистом настоящего «Steel Dragon»! В одночасье он, никому не известный парнишка из маленького городка, становится супер-звездой. В одночасье он и его менеджер, подружка Эмили, погружаются в мир безумства, которое трудно себе представить.

Страна: США
Студия: Bel Air Entertainment, Maysville Pictures, Metal Productions Inc., Robert Lawrence Productions, Warner Bros. Pictures
Продолжительность: 01:46:05
Перевод: Дублированный, профессиональный двухголосый, авторский
Файл
Кодек: h.264
Качество: BDRip-AVC
Видео: 2286 Кбит/с, 1024x426, 23.976 кадр/с
Звук:
• №1: Русский (АС3, 6 ch, 384 Кбит/с) Дублированный [Мост-Видео]
• №2: Английский (АС3, 6 ch, 384 Кбит/с)
Отдельно:
• №3: Русский (АС3, 6 ch, 384 Кбит/с) Авторский одноголосый [Сергей Визгунов]
• №4: Русский (АС3, 2 ch, 192 Кбит/с) Профессиональный двухголосый
• №5: Украинский (АС3, 2 ch, 192 Кбит/с) Профессиональный многоголосый [Канал "Интер"]
Субтитры: Русские, английские

MediaInfo

------------------------------------------------------------------------------------------------------------------------
x264 [info]: frame I:1143 Avg QP:18.02 size: 64210
x264 [info]: frame P:36903 Avg QP:20.08 size: 23687
x264 [info]: frame B:114577 Avg QP:21.30 size: 7597
x264 [info]: consecutive B-frames: 2.8% 3.8% 9.9% 33.6% 17.8% 22.1% 4.4% 3.7% 0.8% 0.3% 0.2% 0.2% 0.4%
------------------------------------------------------------------------------------------------------------------------
Полное имя : Rock.Star.2001.x264.BDRip-AVC.0ptimus.mkv
Формат : Matroska
Версия формата : Version 2
Размер файла : 2,26 Гбайт
Продолжительность : 1 ч. 46 м.
Общий поток : 3055 Кбит/сек
Название фильма : Рок-звезда | Rock Star [2001] -= BDRip (AVC) by 0ptimus =-
Дата кодирования : UTC 2014-10-10 07:30:34
Программа кодирования : mkvmerge v6.6.0 ('The Edge Of The In Between') built on Dec 1 2013 17:55:00
Библиотека кодирования : libebml v1.3.0 + libmatroska v1.4.1
Видео
Идентификатор : 1
Формат : AVC
Формат/Информация : Advanced Video Codec
Профиль формата : High@L4.1
Параметр CABAC формата : Да
Параметр ReFrames формата : 9 кадров
Идентификатор кодека : V_MPEG4/ISO/AVC
Продолжительность : 1 ч. 46 м.
Битрейт : 2286 Кбит/сек
Ширина : 1024 пикселя
Высота : 426 пикселей
Соотношение сторон : 2,40:1
Режим частоты кадров : Постоянный
Частота кадров : 23,976 кадра/сек
Цветовое пространство : YUV
Субдискретизация насыщенности : 4:2:0
Битовая глубина : 8 бит
Тип развёртки : Прогрессивная
Бит/(Пиксели*Кадры) : 0.219
Размер потока : 1,65 Гбайт (73%)
Заголовок : Rip by 0ptimus
Библиотека кодирования : x264 core 133 r2334 a3ac64b
Настройки программы : cabac=1 / ref=9 / deblock=1:-2:-1 / analyse=0x3:0x113 / me=umh / subme=11 / psy=1 / psy_rd=1.00:0.20 / mixed_ref=1 / me_range=32 / chroma_me=1 / trellis=2 / 8x8dct=1 / cqm=0 / deadzone=21,11 / fast_pskip=0 / chroma_qp_offset=-3 / threads=3 / lookahead_threads=1 / sliced_threads=0 / nr=0 / decimate=0 / interlaced=0 / bluray_compat=0 / constrained_intra=0 / bframes=12 / b_pyramid=2 / b_adapt=2 / b_bias=0 / direct=3 / weightb=1 / open_gop=0 / weightp=2 / keyint=240 / keyint_min=23 / scenecut=40 / intra_refresh=0 / rc_lookahead=40 / rc=2pass / mbtree=0 / bitrate=2286 / ratetol=1.0 / qcomp=0.60 / qpmin=0 / qpmax=69 / qpstep=4 / cplxblur=20.0 / qblur=0.5 / vbv_maxrate=50000 / vbv_bufsize=50000 / nal_hrd=none / ip_ratio=1.40 / pb_ratio=1.30 / aq=1:1.00
Язык : English
Default : Да
Forced : Да
Аудио #1
Идентификатор : 2
Формат : AC-3
Формат/Информация : Audio Coding 3
Расширение режима : CM (complete main)
Параметр Endianness формата : Big
Идентификатор кодека : A_AC3
Продолжительность : 1 ч. 46 м.
Вид битрейта : Постоянный
Битрейт : 384 Кбит/сек
Каналы : 6 каналов
Расположение каналов : Front: L C R, Side: L R, LFE
Частота : 48,0 КГц
Битовая глубина : 16 бит
Метод сжатия : С потерями
Размер потока : 291 Мбайт (13%)
Заголовок : Дублированный [Мост-Видео] AC3 5.1 @ 384 kbps
Язык : Russian
Default : Да
Forced : Да
Аудио #2
Идентификатор : 3
Формат : AC-3
Формат/Информация : Audio Coding 3
Расширение режима : CM (complete main)
Параметр Endianness формата : Big
Идентификатор кодека : A_AC3
Продолжительность : 1 ч. 46 м.
Вид битрейта : Постоянный
Битрейт : 384 Кбит/сек
Каналы : 6 каналов
Расположение каналов : Front: L C R, Side: L R, LFE
Частота : 48,0 КГц
Битовая глубина : 16 бит
Метод сжатия : С потерями
Размер потока : 291 Мбайт (13%)
Заголовок : AC3 5.1 @ 384 kbps
Язык : English
Default : Нет
Forced : Нет
Текст #1
Идентификатор : 4
Формат : UTF-8
Идентификатор кодека : S_TEXT/UTF8
Идентификатор кодека/Информация : UTF-8 Plain Text
Язык : Russian
Default : Нет
Forced : Нет
Текст #2
Идентификатор : 5
Формат : UTF-8
Идентификатор кодека : S_TEXT/UTF8
Идентификатор кодека/Информация : UTF-8 Plain Text
Язык : English
Default : Нет
Forced : Нет
Текст #3
Идентификатор : 6
Формат : UTF-8
Идентификатор кодека : S_TEXT/UTF8
Идентификатор кодека/Информация : UTF-8 Plain Text
Заголовок : SDH
Язык : English
Default : Нет
Forced : Нет
Меню
00:00:00.000 : en:Nailing It
00:03:54.650 : en:"Livin' the Life"
00:05:54.895 : en:"Stand Up" Concert
00:08:24.295 : en:Battling Bands
00:10:53.903 : en:Big Brother
00:13:38.192 : en:"I'm in a Band."
00:14:59.315 : en:Pierced ("Are You Ready")
00:17:00.561 : en:Get a Grip ("Stand Up")
00:23:19.564 : en:Where the Talent Is
00:27:17.427 : en:Someone Else's Lines
00:29:47.786 : en:Cuddy Calling
00:34:05.918 : en:Dragon Lair
00:40:15.704 : en:Audition
00:43:17.969 : en:Vocal Secret
00:45:51.290 : en:Coronation
00:48:35.495 : en:Bloody "Blood Pollution"
00:52:35.861 : en:Living Proof
00:55:06.844 : en:Good Time Allowed
01:02:24.407 : en:Wake Up
01:05:14.327 : en:Rock Stars' Girls
01:09:10.062 : en:See You in Seattle
01:12:47.071 : en:Live the Life
01:17:14.755 : en:"We're Done"
01:22:40.287 : en:Steel Dragon Thing
01:26:23.761 : en:Wife Story
01:30:27.588 : en:"Stand Up"...and Exit
01:35:39.608 : en:His Own Music
01:40:29.439 : en:Outtake End Credits

Скриншоты



Релиз от:
[Профиль] [ЛС]
Кто просматривает тему:

Показать сообщения:    

Текущее время: Сегодня 01:25

Часовой пояс: GMT



Вы не можете начинать темы
Вы не можете отвечать на сообщения
Вы не можете редактировать свои сообщения
Вы не можете удалять свои сообщения
Вы не можете голосовать в опросах
Вы не можете прикреплять файлы к сообщениям
Вы не можете скачивать файлы