Роковое число 23 / Номер 23 / The Number 23 (Джоэль Шумахер / Joel Schumacher) [2007 г, Триллер, детектив, BDRip] [Полная версия / Uncut] MVO (Киномания) + MVO (Пифагор) + AVO (Немахов) + AVO (Гланц + Королёва) + Subs (rus, eng)

 
Автор Сообщение

TorrentFilm ®

Пол:

Стаж: 1 год 11 месяцев

Сообщений: 7741



Награды: Нет

Торрент-статистика

Создавать темы 29-Апр-2015 00:03

[Цитировать]

Роковое число 23 / Номер 23 / The Number 23-«От правды не уйдёшь»
-Страна: США, Германия
Студии: New Line Cinema, Contrafilm, Firm Films, KUMAR Mobiliengesellschaft mbH & Co. Projekt Nr. 1 KG
Жанр: Триллер, детектив
Год выпуска: 2007
Версия: UNRATED
Продолжительность: 01:41:16-Перевод: Профессиональный (многоголосый закадровый) Киномания
Перевод 2: Профессиональный (двухголосый закадровый) Пётр Иващенко (Гланц) и Инна Королёва (Отдельно)
Перевод 3: Авторский (одноголосый закадровый) Ю.Немахов (Отдельно)
Перевод 4: Профессиональный (многоголосый закадровый) Пифагор (Отдельно)
Cубтитры: русские (Отдельно)
Оригинальная аудиодорожка: нет-Режиссер: Джоэл Шумахер / Joel Schumacher-В ролях: Джим Керри /Jim Carrey/, Вирджиния Мэдсен /Virginia Madsen/, Логан Лерман /Logan Lerman/, Дэнни Хьюстон /Danny Huston/, Линн Коллинз /Lynn Collins/, Рона Митра /Rhona Mitra/, Мишель Артур /Michelle Arthur/, Марк Пеллегрино /Mark Pellegrino/, Эд Лотер /Ed Lauter/-Описание: Сотрудник службы по отлову бездомных животных Уолтер Спэрроу берется за чтение загадочного романа «Номер 23», который подарила ему на день рождения его жена Агата. В итоге тихая и спокойная жизнь Уолтера превращается в невыносимые муки, которые могут привести и его, и близких ему людей к самому печальному концу. А виной всему — число 23. Дело в том, что роман, в котором рассказывается о жутком убийстве, представляет собой зеркальное отражение жизни самого Уолтера.
То, что происходит с главным героем книги, угрюмым детективом Фингерлингом, слишком уж напоминает Уолтеру его собственную судьбу. По мере того, как описанные в романе события начинают повторяться в реальной жизни, Уолтер, как и Фингерлинг, подпадает под странную власть числа 23, которое он видит повсюду. В конце концов он приходит к убеждению, что ему суждено совершить такое же чудовищное убийство, какое совершил Фингерлинг. Изменить же будущее Уолтер сможет только раскрыв тайну числа…-Доп. информация:

Релиз: Автор рипа: MECHANICAL ENGINEER-Качество видео: BDRip (Blu-Ray)
Формат видео: AVI
Видео: 720 x 304; 23.976 fps; 1587 kbps; 0.30 bit/pixel
Аудио: 48 kHz; 6 ch; 448.00 kbps; AC3 Dolby Digital | Киномания - многоголосый
Размер файла: 1481.39 Mb (1/3 DVD5)
Аудио 2: 48 kHz; 6 ch; 448.00 kbps; AC3 Dolby Digital | Ю.Немахов | отдельно
Аудио 3: 48 kHz; 6 ch; 448.00 kbps; AC3 Dolby Digital | П.Гланц и И.Королёва | отдельно
Аудио 4: 48 kHz; 2 ch; 192.00 kbps; AC3 Dolby Digital | Пифагор - многоголосый | отдельно
Формат субтитров: softsub (SRT) : Русские, английские. | отдельно
Отдельное Спасибо за перевод студии Пифагор: mister55555
Синхронизация звуковых дорожек: MECHANICAL ENGINEER, хронометраж отличается от всех раздач, в среднем пришлось вытянуть на 200, и сдвинуть на -20, для полной синхронизации.

MediaInfo

Format                           : AVI
Format/Info                      : Audio Video Interleave
File size                        : 1.45 GiB
Duration                         : 1h 41mn
Overall bit rate                 : 2 045 Kbps
Movie name                       : Роковое число 23 / The Number 23 [UNCUT] (2007)
Director                         : MECHANICAL ENGINEER (Blu-Ray)
Writing application              : VirtualDubMod 1.5.10.3 | www.virtualdub-fr.org || (build 2550/release)
Copyright                        : HQ-ViDEO
Comment                          : 23.04.2015
Video
ID                               : 0
Format                           : MPEG-4 Visual
Format profile                   : Advanced Simple@L5
Format settings, BVOP            : Yes
Format settings, QPel            : No
Format settings, GMC             : No warppoints
Format settings, Matrix          : Custom
Codec ID                         : XVID
Codec ID/Hint                    : XviD
Duration                         : 1h 41mn
Bit rate                         : 1 588 Kbps
Width                            : 720 pixels
Height                           : 304 pixels
Display aspect ratio             : 2.35:1
Frame rate                       : 23.976 fps
Color space                      : YUV
Chroma subsampling               : 4:2:0
Bit depth                        : 8 bits
Scan type                        : Progressive
Bits/(Pixel*Frame)               : 0.303
Stream size                      : 1.12 GiB (78%)
Writing library                  : XviD 65
Audio
ID                               : 1
Format                           : AC-3
Format/Info                      : Audio Coding 3
Mode extension                   : CM (complete main)
Codec ID                         : 2000
Duration                         : 1h 41mn
Bit rate mode                    : Constant
Bit rate                         : 448 Kbps
Channel(s)                       : 6 channels
Channel positions                : Front: L C R, Side: L R, LFE
Sampling rate                    : 48.0 KHz
Bit depth                        : 16 bits
Stream size                      : 325 MiB (22%)
Alignment                        : Split accross interleaves
Interleave, duration             : 42 ms (1.00 video frame)
Interleave, preload duration     : 500 ms

Скриншоты для оценки качества (превью - увеличение по клику):





ПРИЯТНОГО ПРОСМОТРА!
[Профиль] [ЛС]

Создавать темы 06-Авг-2015 22:35 (спустя 3 месяца 7 дней)

Топик был перенесен из форума Фильмы до 2014 года в форум Фильмы до 2012 года
sergej644
 
Кто просматривает тему:

Форум Тема Автор Размер
Программы [Разное] Тайны великих пророков v1.0 [Android 2.0+, RUS] TorrentFilm 5 MB
Разная литература Александр Кондрашов | Доктор Борменталь. 8 уроков сжигания жира (2015) [FB2, RTF] достали все 10 MB
Фильмы 2011 года Бесценный / Роковая красотка / Hors de prix (Пьер Сальвадори / Pierre Salvadori) [2006, Франция, мелодрама, комедия, DVDRip] AVO (Евгений Гранкин) + Original Fre TorrentFilm 1.5 GB
Мультфильмы СССР В стране невыученных уроков (1969) DVDRip-AVC от New-Team Белочка 335 MB
Иностранные языки Н.Ф. Орлова (ред.) | Английская грамматика шутя и всерьез. 440 мини-уроков (2013) [PDF] sergej644 180 MB
Иностранные языки Наталья Караванова | Английский на каждый день: 365 мини-уроков (2015) [PDF] достали все 7 MB
Индийское кино Роковая встреча / Calcutta Mail (2003) DVDRip | Р Russian Mafia 2.18 GB
Фильмы 2010 года Роковая встреча / Травматический фактор / La mauvaise rencontre (Жози Дайан / Josée Dayan) [2010, Франция, драма, SATRip] + Sub Rus + Original Fre TorrentFilm 1.46 GB
Показать сообщения:    

Текущее время: Сегодня 15:56

Часовой пояс: GMT



Вы не можете начинать темы
Вы не можете отвечать на сообщения
Вы не можете редактировать свои сообщения
Вы не можете удалять свои сообщения
Вы не можете голосовать в опросах
Вы не можете прикреплять файлы к сообщениям
Вы не можете скачивать файлы