Роковое спасение / Fatal Rescue (Стивен Мануэль / Stephen Manuel) [2008, Германия, триллер, HDTVRip] DVO (Hallmark)

 
Автор Сообщение

painkiller ®

Стаж: 2 года 3 месяца

Сообщений: 582



Награды: Нет

Торрент-статистика

Создавать темы 21-Авг-2014 01:32

[Цитировать]

Роковое спасение / Fatal Rescue
Страна: Германия
Жанр: триллер
Год выпуска: 2008
Продолжительность: 01:26:26
Перевод: Профессиональный (двухголосый закадровый) Hallmark
Cубтитры: нет
Режиссер: Стивен Мануэль / Stephen Manuel
В ролях: Стив Гуттенберг, Эйслинн Сэндс, Доминик Рикхардс, Николас Лэндмэн-Бургхардт, Мартин Хенер, Флориан Кринер, Анна Фин, Максимилиан Артахо
Описание: Герои фильма спасают мальчугана, провалившегося в заброшенный колодец в лесу. В роде бы «заурядный» и много раз реализованный сюжет с типичным концом. Однако, на фоне этого сюжета, зритель постепенно понимает, какая жестокая драма разыгралась в далеком прошлом наших героев и становится понятным, почему спасение оказалось роковым и каковы причины того, что кто-то из действующих лиц на протяжении всей операции мешал спасателям, желая похоронить на дне колодца вместе с мальчуганом свою тайну …
Сэмпл:
https://yadi.sk/i/nVA3ICj3a5pCr
Доп. информация: За предоставленный рип благодарим Ledy_X
"Спасибы" просьба ПИСАТЬ в теме, тем самым вы продлеваете жизнь раздаче.
Качество видео: HDTVRip [Исходник 1080i]
Формат видео: AVI
Видео: 720x400 (1.80:1), 25 fps, XviD build 50 ~2099 kbps avg, 0.29 bit/pixel
Аудио: 48 kHz, AC3 Dolby Digital, 2 ch, ~192.00 kbps avg

MediaInfo

Роковое спасение - Fatal Rescue [Rip by Ledy_X].avi
Format : AVI
Format/Info : Audio Video Interleave
File size : 1.39 GiB
Duration : 1h 26mn
Overall bit rate : 2 302 Kbps
Movie name : Роковое спасение - Fatal Rescue [Rip by Ledy_X]
Director : Rip by Ledy_X
Writing application : VirtualDubMod 1.5.10.2 (build 2540/release)
Copyright : Edich2
Comment : RuTracker.org
Video
ID : 0
Format : MPEG-4 Visual
Format profile : Advanced Simple@L5
Format settings, BVOP : 2
Format settings, QPel : No
Format settings, GMC : No warppoints
Format settings, Matrix : Custom
Codec ID : XVID
Codec ID/Hint : XviD
Duration : 1h 26mn
Bit rate : 2 100 Kbps
Width : 720 pixels
Height : 400 pixels
Display aspect ratio : 16:9
Frame rate : 25.000 fps
Color space : YUV
Chroma subsampling : 4:2:0
Bit depth : 8 bits
Scan type : Progressive
Compression mode : Lossy
Bits/(Pixel*Frame) : 0.292
Stream size : 1.27 GiB (91%)
Writing library : XviD 1.2.1 (UTC 2008-12-04)
Audio
ID : 1
Format : AC-3
Format/Info : Audio Coding 3
Codec ID : 2000
Duration : 1h 26mn
Bit rate mode : Constant
Bit rate : 192 Kbps
Channel(s) : 2 channels
Sampling rate : 48.0 KHz
Compression mode : Lossy
Stream size : 119 MiB (8%)
Alignment : Split accross interleaves
Interleave, duration : 40 ms (1.00 video frame)
Interleave, preload duration : 500 ms

Скриншоты


[Профиль] [ЛС]

Создавать темы 06-Авг-2015 23:06 (спустя 11 месяцев 16 дней)

Топик был перенесен из форума Фильмы до 2014 года в форум Фильмы до 2012 года
sergej644
 

Создавать темы 12-Июн-2016 08:51 (спустя 1 год 9 месяцев)

Топик был перенесен из форума Фильмы 2011 года в форум Фильмы 2006-2008 года
Russian Mafia
 
Кто просматривает тему:

Форум Тема Автор Размер
Программы [Разное] Тайны великих пророков v1.0 [Android 2.0+, RUS] TorrentFilm 5 MB
Разная литература Александр Кондрашов | Доктор Борменталь. 8 уроков сжигания жира (2015) [FB2, RTF] достали все 10 MB
Фильмы 2011 года Бесценный / Роковая красотка / Hors de prix (Пьер Сальвадори / Pierre Salvadori) [2006, Франция, мелодрама, комедия, DVDRip] AVO (Евгений Гранкин) + Original Fre TorrentFilm 1.5 GB
Мультфильмы СССР В стране невыученных уроков (1969) DVDRip-AVC от New-Team Белочка 335 MB
Иностранные языки Н.Ф. Орлова (ред.) | Английская грамматика шутя и всерьез. 440 мини-уроков (2013) [PDF] sergej644 180 MB
Иностранные языки Наталья Караванова | Английский на каждый день: 365 мини-уроков (2015) [PDF] достали все 7 MB
Индийское кино Роковая встреча / Calcutta Mail (2003) DVDRip | Р Russian Mafia 2.18 GB
Фильмы 2010 года Роковая встреча / Травматический фактор / La mauvaise rencontre (Жози Дайан / Josée Dayan) [2010, Франция, драма, SATRip] + Sub Rus + Original Fre TorrentFilm 1.46 GB
Показать сообщения:    

Текущее время: Сегодня 11:54

Часовой пояс: GMT



Вы не можете начинать темы
Вы не можете отвечать на сообщения
Вы не можете редактировать свои сообщения
Вы не можете удалять свои сообщения
Вы не можете голосовать в опросах
Вы не можете прикреплять файлы к сообщениям
Вы не можете скачивать файлы